Marie-Elisabeth Hecker, Antwerp Symphony Orchestra & Edo de Waart - Elgar: Cello Concerto & Piano Quintet (2018) [24/48]

Posted By: SERTiL
Marie-Elisabeth Hecker, Antwerp Symphony Orchestra & Edo de Waart - Elgar: Cello Concerto & Piano Quintet (2018) [24/48]

Marie-Elisabeth Hecker, Antwerp Symphony Orchestra & Edo de Waart - Elgar: Cello Concerto & Piano Quintet (2018)
FLAC (tracks) 24-bit/48 kHz | Time - 69:57 minutes | 678 MB
Studio Master, Official Digital Download | Artwork: Digital Booklet

After making several discs of chamber music by Brahms and Schubert, the cellist Marie-Elisabeth Hecker now records a large-scale concerto, showing the full range of her talent. Composed between 1918 and 1919, Elgar’s Concerto Op.85 was poorly received at its first performance but has since become established as one of the key works in the cello repertoire. To complete the programme, Marie-Elisabeth Hecker rejoins her chamber music partners, the violinists Carolin Widmann and David McCarroll, the violist Pauline Sachse and the pianist Martin Helmchen, in Elgar’s Piano Quintet, composed at the same time as the Concerto and premiered in London in 1919.

Tracklist:

Edward Elgar (1857 - 1934)

01. Cello Concerto in E Minor, Op. 85: I. Adagio-Moderato - Marie-Elisabeth Hecker
02. Cello Concerto in E Minor, Op. 85: II. Lento-Allegro molto - Marie-Elisabeth Hecker
03. Cello Concerto in E Minor, Op. 85: III. Adagio - Marie-Elisabeth Hecker
04. Cello Concerto in E Minor, Op. 85: IV. Allegro-Moderato-Allegro ma non troppo - Marie-Elisabeth Hecker

Anonymous

05. Sospiri, Op. 70 (Arr. for Cello & Strings) - Marie-Elisabeth Hecker

Edward Elgar

06. Piano Quintet in A Minor, Op. 84: I. Moderato - Carolin Widmann
07. Piano Quintet in A Minor, Op. 84: II. Adagio - Carolin Widmann
08. Piano Quintet in A Minor, Op. 84: III. Andante-Allegro - Carolin Widmann

Personnel:
Marie-Elisabeth Hecker, cello
Carolin Widmann, violin
David McCarroll, violin
Pauline Sachse, viola
Martin Helmchen, piano
Antwerp Symphony Orchestra
Edo De Waart, conductor

foobar2000 1.3.7 / Dynamic Range Meter 1.1.1
log date: 2018-03-23 13:42:51

––––––––––––––––––––––––––––––––––––––––
Analyzed: Marie-Elisabeth Hecker, Antwerp Symphony Orchestra, Edo de Waart / Elgar: Cello Concerto & Piano Quintet
––––––––––––––––––––––––––––––––––––––––

DR Peak RMS Duration Track
––––––––––––––––––––––––––––––––––––––––
DR13 -1.32 dB -21.56 dB 7:47 01-Cello Concerto in E Minor, Op. 85: I. Adagio-Moderato - Marie-Elisabeth Hecker
DR14 -2.65 dB -24.37 dB 4:41 02-Cello Concerto in E Minor, Op. 85: II. Lento-Allegro molto - Marie-Elisabeth Hecker
DR13 -9.13 dB -28.39 dB 4:43 03-Cello Concerto in E Minor, Op. 85: III. Adagio - Marie-Elisabeth Hecker
DR13 -0.22 dB -20.83 dB 11:42 04-Cello Concerto in E Minor, Op. 85: IV. Allegro-Moderato-Allegro ma non troppo - Marie-Elisabeth Hecker
DR13 -7.12 dB -26.78 dB 4:45 05-Sospiri, Op. 70 (Arr. for Cello & Strings) - Marie-Elisabeth Hecker
DR14 -0.28 dB -21.77 dB 13:39 06-Piano Quintet in A Minor, Op. 84: I. Moderato - Carolin Widmann
DR16 -0.77 dB -24.43 dB 12:01 07-Piano Quintet in A Minor, Op. 84: II. Adagio - Carolin Widmann
DR15 -0.11 dB -20.21 dB 10:43 08-Piano Quintet in A Minor, Op. 84: III. Andante-Allegro - Carolin Widmann
––––––––––––––––––––––––––––––––––––––––

Number of tracks: 8
Official DR value: DR14

Samplerate: 48000 Hz
Channels: 2
Bits per sample: 24
Bitrate: 1398 kbps
Codec: FLAC
================================================================================


Thanks to the Original customer.