BBC Scottish Symphony Orchestra, Martyn Brabbins - Elgar: Enigma Variations (2016) [Official Digital Download 24/96]

Posted By: SERTiL
BBC Scottish Symphony Orchestra, Martyn Brabbins - Elgar: Enigma Variations (2016) [Official Digital Download 24/96]

BBC Scottish Symphony Orchestra, Martyn Brabbins - Elgar: Enigma Variations (2016)
FLAC (tracks) 24-bit/96 kHz | Time - 81:43 minutes | 1.40 GB
Studio Master, Official Digital Download | Artwork: Digital Booklet

Two much-loved orchestral favourites representing the summit of Elgar’s maturity are coupled with three of the lesser-known wartime works, here receiving their first recordings with the original French texts. Kate Royal is the soprano soloist in Une voix dans le désert, a hauntingly tender masterpiece which every Elgarian should know.

Tracklist:

Edward Elgar (1857-1934)

01 In the South 'Alassio' Op 50 [22'40]

Variations for orchestra 'Enigma' Op 36
02 Enigma: Andante [1'48]
03 Variation 1: C.A.E. (L'istesso tempo) [1'51]
04 Variation 2: H.D.S.-P. (Allegro) [0'49]
05 Variation 3: R.B.T. (Allegretto) [1'28]
06 Variation 4: W.M.B. (Allegro di molto) [0'30]
07 Variation 5: R.P.A. (Moderato) [2'16]
08 Variation 6: Ysobel (Andantino) [1'22]
09 Variation 7: Troyte (Presto) [0'59]
10 Variation 8: W.N. (Allegretto) [2'10]
11 Variation 9: Nimrod (Adagio) [4'21]
12 Variation 10: Dorabella (Intermezzo: Allegretto) [2'51]
13 Variation 11: G.R.S. (Allegro di molto) [1'02]
14 Variation 12: B.G.N. (Andante) [3'13]
15 Variation 13: *** Romanza (Moderato) [3'07]
16 Variation 14: E.D.U. Finale (Allegro – Presto) [5'28]

17 Carillon Op 75 [8'30]
18 Une voix dans le désert Op 77 [11'02]
19 Le drapeau belge Op 79 [3'30]
20 Pleading Op 48 [2'58]

Personnel:
BBC Scottish Symphony Orchestra
Martyn Brabbins, conductor

foobar2000 1.3.7 / Dynamic Range Meter 1.1.1
log date: 2018-03-06 18:44:44

––––––––––––––––––––––––––––––––––––––––
Analyzed: BBC Scottish Symphony Orchestra, Martyn Brabbins / Elgar: Enigma Variations & other orchestral works (1-16)
Florence Daguerre de Hureaux, BBC Scottish Symphony Orchestra, Martyn Brabbins / Elgar: Enigma Variations & other orchestral works (17-18)
Kate Royal, Florence Daguerre de Hureaux, BBC Scottish Symphony Orchestra, Martyn Brabbins / Elgar: Enigma Variations & other orchestral works (19)
Yann Ghiro, BBC Scottish Symphony Orchestra, Martyn Brabbins / Elgar: Enigma Variations & other orchestral works (20)
––––––––––––––––––––––––––––––––––––––––

DR Peak RMS Duration Track
––––––––––––––––––––––––––––––––––––––––
DR14 -0.20 dB -19.33 dB 22:40 01-In the South 'Alassio', Op 50
DR12 -11.64 dB -30.02 dB 1:48 02-Variations for orchestra 'Enigma', Op 36: Enigma: Andante
DR12 -5.61 dB -24.08 dB 1:51 03-Variations for orchestra 'Enigma', Op 36: Variation 01: C.A.E. (L'istesso tempo)
DR11 -9.90 dB -28.16 dB 0:49 04-Variations for orchestra 'Enigma', Op 36: Variation 02: H.D.S.-P. (Allegro)
DR13 -4.85 dB -24.08 dB 1:28 05-Variations for orchestra 'Enigma', Op 36: Variation 03: R.B.T. (Allegretto)
DR12 -0.58 dB -16.12 dB 0:30 06-Variations for orchestra 'Enigma', Op 36: Variation 04: W.M.B. (Allegro di molto)
DR12 -5.88 dB -23.92 dB 2:16 07-Variations for orchestra 'Enigma', Op 36: Variation 05: R.P.A. (Moderato)
DR11 -7.62 dB -27.91 dB 1:22 08-Variations for orchestra 'Enigma', Op 36: Variation 06: Ysobel (Andantino)
DR13 -0.62 dB -16.22 dB 0:59 09-Variations for orchestra 'Enigma', Op 36: Variation 07: Troyte (Presto)
DR12 -7.19 dB -24.59 dB 2:10 10-Variations for orchestra 'Enigma', Op 36: Variation 08: W.N. (Allegretto)
DR12 -1.40 dB -20.08 dB 4:21 11-Variations for orchestra 'Enigma', Op 36: Variation 09: Nimrod (Adagio)
DR13 -13.14 dB -32.62 dB 2:51 12-Variations for orchestra 'Enigma', Op 36: Variation 10: Dorabella (Intermezzo: Allegretto)
DR12 -0.37 dB -16.89 dB 1:02 13-Variations for orchestra 'Enigma', Op 36: Variation 11: G.R.S. (Allegro di molto)
DR13 -5.68 dB -25.72 dB 3:13 14-Variations for orchestra 'Enigma', Op 36: Variation 12: B.G.N. (Andante)
DR15 -4.70 dB -28.00 dB 3:07 15-Variations for orchestra 'Enigma', Op 36: Variation 13: *** Romanza (Moderato)
DR12 -0.11 dB -16.15 dB 5:28 16-Variations for orchestra 'Enigma', Op 36: Variation 14: E.D.U. Finale (Allegro – Presto)
DR14 -0.37 dB -19.17 dB 8:30 17-Carillon, Op 75
DR14 -0.39 dB -20.63 dB 3:30 19-Le drapeau belge, Op 79
DR16 -0.72 dB -23.54 dB 11:02 18-Une voix dans le désert, Op 77
DR11 -4.14 dB -22.11 dB 2:58 20-Pleading, Op 48
––––––––––––––––––––––––––––––––––––––––

Number of tracks: 20
Official DR value: DR13

Samplerate: 96000 Hz
Channels: 2
Bits per sample: 24
Bitrate: 2401 kbps
Codec: FLAC
================================================================================


Thanks to the Original customer.