Elvis Presley - The Complete USA Singles (2015) [Official Digital Download]

Posted By: Pisulik
Elvis Presley - The Complete USA Singles (2015) [Official Digital Download]

Elvis Presley - The Complete USA Singles (2015)
FLAC (tracks) 24-bit/44.1 kHz | Time - 227:06 minutes | 2,25 GB
Studio Master, Official Digital Download | Artwork: Front cover

You may have all of these great songs, but this album brings them all together and it makes one terrific listen. Hit after hit comes at you like a runaway train, so good to the ears and it hammers home just how fantastic Elvis' voice was and his delivery of each song, pure magic. You'll never hear these songs come at you in this way even if you played each single one after the other like this. It's so refreshing to hear great music in this way, fantastic album.

Tracklist:

01. That's all Right Mama
02. Blue Moon of Kentucky
03. Good Rockin Tonight
04. I Don't Care if the Sun Don't Shine
05. Milkcow Blues Boogie
06. You're a Heartbreaker
07. Baby, Let's Play House
08. I'm Left, You're Right, She's Gone
09. Mystery Train
10. I Forgot to Remember to Forget
11. Heartbreak Hotel
12. I Was the One
13. I Want You, I Need You, I Love You
14. My Baby Left Me
15. Hound Dog
16. Don't Be Cruel
17. Blue Suede Shoes
18. Tutti Frutti
19. I Got a Woman
20. I'm Counting on You
21. I'll Never Let You Go (Little Darlin)
22. I'm Gonna Sit Right Down And Cry (Over You)
23. Tryin to Get to You
24. I Love You Because
25. Blue Moon
26. Just Because
27. Money Honey
28. One Sided Love Affair
29. Lawdy Miss Clawdy
30. Shake Rattle And Roll
31. Love Me Tender
32. Anyway You Want Me (That's How I Will be)
33. Playing For Keeps
34. Too Much
35. All Shook Up
36. That's When Your Heartaches Begin
37. (Let Me Be Your) Teddy Bear
38. Loving You
39. Jailhouse Rock
40. Treat Me Nice
41. Don't
42. I Beg of You
43. Wear my Ring Around Your Neck
44. Doncha Think it's Time
45. Hard Headed Woman
46. Don't Ask Me Why
47. One Night
48. I Got Stung
49. I Need Your Love Tonight
50. (Now And Then There's) a Fool Such as I
51. Big Hunk O'Love
52. My Wish Came True
53. Stuck on You
54. Fame and Fortune
55. It's Now or Never
56. A Mess of Blues
57. Are You Lonesome Tonight
58. I Gotta Know
59. Surrender
60. Lonely Man
61. I Feel So Bad
62. Wild in the Country
63. (Marie's the Name) His Latest Flame
64. Little Sister
65. Can't Help Falling in Love
66. Rock-A-Hula Baby
67. Good Luck Charm
68. Anything That's Part of You
69. She's Not You
70. Just Tell Her Jim Said Hello
71. Return to Sender
72. Where do You Come From
73. Rip it Up
74. Love Me
75. When My Blue Moon Turns to Gold Again
76. (There'll Be) Peace in the Valley (For Me)
77. It's No Secret (What God Can Do)
78. I Believe
79. Take My Hand, Precious Lord
80. I Need You So
81. Have I Told You Lately That I Love You
82. Blueberry Hill
83. Is it so Strange
84. Flaming Star
85. Summer Kisses, Winter Tears
86. Follow that Dream
87. Angel
88. What a Wonderful Life
89. I'm Not The Marrying Kind
90. King of the Whole Wide World
91. This is Living
92. Riding the Rainbow
93. Home is Where the Heart is
94. I Got Lucky
95. A Whistling Tune
96. Long Tall Sally
97. First in Line
98. Paralyzed
99. How's the World Treating You
100. How Do You Think I Feel

foobar2000 1.3.7 / Dynamic Range Meter 1.1.1
log date: 2018-02-12 11:18:01

––––––––––––––––––––––––––––––––––––––––
Analyzed: Elvis Presley / The Complete USA Singles
––––––––––––––––––––––––––––––––––––––––

DR Peak RMS Duration Track
––––––––––––––––––––––––––––––––––––––––
DR8 -0.02 dB -9.47 dB 1:56 01-That's all Right Mama
DR8 -0.17 dB -9.23 dB 2:03 02-Blue Moon of Kentucky
DR8 -0.01 dB -9.74 dB 2:13 03-Good Rockin Tonight
DR8 -0.04 dB -9.25 dB 2:29 04-I Don't Care if the Sun Don't Shine
DR8 -0.03 dB -9.57 dB 2:40 05-Milkcow Blues Boogie
DR8 0.00 dB -9.57 dB 1:26 06-You're a Heartbreaker
DR8 -0.02 dB -9.67 dB 2:16 07-Baby, Let's Play House
DR8 0.00 dB -9.78 dB 2:37 08-I'm Left, You're Right, She's Gone
DR8 0.00 dB -10.74 dB 2:25 09-Mystery Train
DR8 0.00 dB -10.79 dB 2:29 10-I Forgot to Remember to Forget
DR8 -0.02 dB -9.49 dB 2:07 11-Heartbreak Hotel
DR8 -0.01 dB -9.22 dB 2:30 12-I Was the One
DR8 -0.02 dB -9.29 dB 2:39 13-I Want You, I Need You, I Love You
DR8 0.00 dB -9.45 dB 2:10 14-My Baby Left Me
DR8 0.00 dB -9.51 dB 2:15 15-Hound Dog
DR8 0.00 dB -9.58 dB 2:03 16-Don't Be Cruel
DR8 -0.01 dB -9.42 dB 1:59 17-Blue Suede Shoes
DR9 0.00 dB -9.53 dB 1:58 18-Tutti Frutti
DR8 0.00 dB -10.03 dB 2:24 19-I Got a Woman
DR8 0.00 dB -10.24 dB 2:23 20-I'm Counting on You
DR7 0.00 dB -10.18 dB 2:23 21-I'll Never Let You Go (Little Darlin)
DR8 -0.03 dB -9.44 dB 2:00 22-I'm Gonna Sit Right Down And Cry (Over You)
DR8 -0.02 dB -9.39 dB 2:32 23-Tryin to Get to You
DR7 0.00 dB -9.72 dB 2:41 24-I Love You Because
DR6 -0.01 dB -10.50 dB 2:39 25-Blue Moon
DR8 0.00 dB -9.49 dB 2:33 26-Just Because
DR9 0.00 dB -10.04 dB 2:33 27-Money Honey
DR8 -0.01 dB -9.46 dB 2:10 28-One Sided Love Affair
DR8 -0.03 dB -9.31 dB 2:08 29-Lawdy Miss Clawdy
DR8 0.00 dB -9.42 dB 2:30 30-Shake Rattle And Roll
DR7 -0.11 dB -9.37 dB 2:45 31-Love Me Tender
DR8 -0.10 dB -9.22 dB 2:14 32-Anyway You Want Me (That's How I Will be)
DR7 -0.01 dB -9.56 dB 2:54 33-Playing For Keeps
DR8 0.00 dB -9.49 dB 2:32 34-Too Much
DR9 0.00 dB -9.61 dB 1:57 35-All Shook Up
DR8 0.00 dB -10.04 dB 3:23 36-That's When Your Heartaches Begin
DR8 -0.04 dB -9.96 dB 1:47 37-(Let Me Be Your) Teddy Bear
DR8 0.00 dB -10.50 dB 2:15 38-Loving You
DR8 0.00 dB -9.81 dB 2:26 39-Jailhouse Rock
DR8 -0.02 dB -9.57 dB 2:12 40-Treat Me Nice
DR8 0.00 dB -9.54 dB 2:48 41-Don't
DR8 -0.01 dB -9.35 dB 1:52 42-I Beg of You
DR8 -0.04 dB -9.29 dB 2:14 43-Wear my Ring Around Your Neck
DR7 0.00 dB -9.67 dB 1:55 44-Doncha Think it's Time
DR8 -0.02 dB -9.36 dB 1:54 45-Hard Headed Woman
DR8 -0.04 dB -9.39 dB 2:05 46-Don't Ask Me Why
DR8 0.00 dB -9.46 dB 2:31 47-One Night
DR8 -0.04 dB -9.35 dB 1:49 48-I Got Stung
DR8 0.00 dB -9.24 dB 2:03 49-I Need Your Love Tonight
DR8 -0.08 dB -9.29 dB 2:29 50-(Now And Then There's) a Fool Such as I
DR8 -0.09 dB -9.31 dB 2:12 51-Big Hunk O'Love
DR6 0.00 dB -9.45 dB 2:34 52-My Wish Came True
DR8 0.00 dB -9.45 dB 2:19 53-Stuck on You
DR8 -0.03 dB -9.36 dB 2:31 54-Fame and Fortune
DR8 0.00 dB -9.60 dB 3:16 55-It's Now or Never
DR8 0.00 dB -9.38 dB 2:41 56-A Mess of Blues
DR8 -0.02 dB -9.97 dB 3:06 57-Are You Lonesome Tonight
DR8 0.00 dB -9.48 dB 2:15 58-I Gotta Know
DR7 -0.01 dB -9.40 dB 1:53 59-Surrender
DR7 -0.02 dB -9.30 dB 2:46 60-Lonely Man
DR8 0.00 dB -9.38 dB 2:54 61-I Feel So Bad
DR8 -0.01 dB -9.85 dB 1:52 62-Wild in the Country
DR8 0.00 dB -9.71 dB 2:06 63-(Marie's the Name) His Latest Flame
DR8 0.00 dB -9.72 dB 2:30 64-Little Sister
DR8 0.00 dB -9.32 dB 3:03 65-Can't Help Falling in Love
DR8 -0.02 dB -9.56 dB 2:01 66-Rock-A-Hula Baby
DR8 0.00 dB -9.73 dB 2:22 67-Good Luck Charm
DR7 -0.01 dB -10.30 dB 2:03 68-Anything That's Part of You
DR7 0.00 dB -9.51 dB 2:07 69-She's Not You
DR9 0.00 dB -9.70 dB 1:53 70-Just Tell Her Jim Said Hello
DR9 0.00 dB -10.42 dB 2:07 71-Return to Sender
DR8 -0.02 dB -10.20 dB 2:05 72-Where do You Come From
DR14 -0.14 dB -15.64 dB 1:54 73-Rip it Up
DR11 -1.25 dB -15.90 dB 2:46 74-Love Me
DR10 -0.76 dB -13.22 dB 2:22 75-When My Blue Moon Turns to Gold Again
DR8 0.00 dB -9.79 dB 3:22 76-(There'll Be) Peace in the Valley (For Me)
DR8 0.00 dB -9.98 dB 3:56 77-It's No Secret (What God Can Do)
DR7 0.00 dB -9.69 dB 2:05 78-I Believe
DR8 0.00 dB -9.75 dB 3:18 79-Take My Hand, Precious Lord
DR8 0.00 dB -9.75 dB 2:40 80-I Need You So
DR7 0.00 dB -9.75 dB 2:32 81-Have I Told You Lately That I Love You
DR8 0.00 dB -9.87 dB 2:40 82-Blueberry Hill
DR8 -0.01 dB -10.25 dB 2:29 83-Is it so Strange
DR8 0.00 dB -10.30 dB 2:26 84-Flaming Star
DR8 0.00 dB -9.61 dB 2:20 85-Summer Kisses, Winter Tears
DR8 0.00 dB -9.44 dB 1:38 86-Follow that Dream
DR8 0.00 dB -9.60 dB 2:39 87-Angel
DR8 0.00 dB -9.42 dB 2:26 88-What a Wonderful Life
DR7 -0.01 dB -9.73 dB 1:51 89-I'm Not The Marrying Kind
DR8 0.00 dB -10.08 dB 2:42 90-King of the Whole Wide World
DR8 0.00 dB -10.14 dB 1:45 91-This is Living
DR8 0.00 dB -9.83 dB 1:39 92-Riding the Rainbow
DR8 0.00 dB -9.88 dB 2:34 93-Home is Where the Heart is
DR8 0.00 dB -9.60 dB 2:11 94-I Got Lucky
DR7 0.00 dB -10.19 dB 3:18 95-A Whistling Tune
DR12 -1.40 dB -14.18 dB 1:55 96-Long Tall Sally
DR11 -1.78 dB -15.32 dB 3:23 97-First in Line
DR11 -1.92 dB -14.59 dB 2:26 98-Paralyzed
DR12 -1.41 dB -18.06 dB 2:26 99-How's the World Treating You
DR11 -1.07 dB -14.77 dB 2:12 100-How Do You Think I Feel
––––––––––––––––––––––––––––––––––––––––

Number of tracks: 100
Official DR value: DR8

Samplerate: 44100 Hz
Channels: 2
Bits per sample: 24
Bitrate: 887 kbps
Codec: FLAC
================================================================================


All thanks go to the original releaser