Eminem - Revival (2017) [Official Digital Download]

Posted By: Pisulik
Eminem - Revival (2017) [Official Digital Download]

Eminem - Revival (2017)
FLAC (tracks) 24-bit/44.1 kHz | Time - 77:32 minutes | 904 MB
Studio Master, Official Digital Download | Artwork: Digital Booklet

As Slim Shady fans prepare for Revival Eminem amplified the excitement to his highly anticipated ninth studio album with the brash track "Untouchable," which you can read all the cryptic lyrics decoded here. Em opened his official online store to fans who want to pick up merchandise and support the Detroit native ahead of the 19-track project's release date with a plethora of options. Items for purchase range from Shady-engraved dog tags, steel-printed "Walk On Water" lyrics hand-written by Em, a black t-shirt or hoodie with a graphic featuring the 45-year-old taking aim at his detractors. All purchases come with a digital or CD version of Revival, which is also available as a lithograph. The most expensive option for Stans to pre-order contains a bundle encompassing the previously mentioned dog tag and "Walk On Water" steel print, in addition to an exclusive autographed version of Revival, which will run you $500 in total for the package deal.

Production-wise, Revival is a trainwreck. If Eminem thinks his verbal box of tricks can overcome the weakness of any backing track, his recent albums have demonstrated otherwise. Revival begins with the Beyoncé-featuring Walk on Water, a song as thrilling as shopping for shower curtains – but were it put at the end of this exhausting LP it would at least provide some sweet respite. Its beat is relatively subtle, lacks bombast and doesn’t have you questioning the sanity of all involved. Much worse are the negligible scribblings of frequent collaborator Alex da Kid, on studio speed-dial for album filler, or the decision to flip Joan Jett for the risible Remind Me. Rick Rubin – the man behind 99 Problems, Run DMC’s Walk This Way and Johnny Cash’s take on Hurt – produced the latter.

Early fans have long since given up on Eminem, which is probably of zero importance to him, but if you played this album to them they’d be baffled. Eminem is clearly a rapper, but there’s hardly a trace of hip-hop here. The guests – Alicia Keys, Pink, Ed Sheeran, Beyoncé – speak to pop-rap stadium-packing ambitions, as does the familiar song structure. We start off slow, he gets angrier, he explodes in incandescent rage, an anthemic vocal hook comes in. Repeat, for 77 minutes.


01. Walk On Water (feat. Beyoncé)
02. Believe
03. Chloraseptic (feat. PHRESHER)
04. Untouchable
05. River (feat. Ed Sheeran)
06. Remind Me (Intro)
07. Remind Me
08. Revival (Interlude)
09. Like Home (feat. Alicia Keys)
10. Bad Husband (feat. X Ambassadors)
11. Tragic Endings (feat. Skylar Grey)
12. Framed
13. Nowhere Fast (feat. Kehlani)
14. Heat
15. Offended
16. Need Me (feat. P!nk)
17. In Your Head
18. Castle
19. Arose

foobar2000 1.3.7 / Dynamic Range Meter 1.1.1
log date: 2017-12-15 07:32:24

Analyzed: Eminem / Revival

DR Peak RMS Duration Track
DR9 -1.88 dB -13.50 dB 5:04 01-Walk On Water feat Beyoncé
DR6 -0.21 dB -8.60 dB 5:15 02-Believe
DR5 -0.17 dB -7.41 dB 5:01 03-Chloraseptic feat PHRESHER
DR6 -0.15 dB -7.06 dB 6:10 04-Untouchable
DR7 -0.15 dB -9.32 dB 3:41 05-River feat Ed Sheeran
DR14 -0.24 dB -28.52 dB 0:26 06-Remind Me (Intro)
DR6 -0.22 dB -7.19 dB 3:45 07-Remind Me
DR6 -2.93 dB -11.17 dB 0:52 08-Revival (Interlude)
DR6 -0.15 dB -9.11 dB 4:05 09-Like Home feat Alicia Keys
DR6 -0.21 dB -8.25 dB 4:48 10-Bad Husband feat X Ambassadors
DR7 0.00 dB -9.03 dB 4:12 11-Tragic Endings feat Skylar Grey
DR5 0.00 dB -6.55 dB 4:13 12-Framed
DR6 -0.22 dB -8.36 dB 4:24 13-Nowhere Fast feat Kehlani
DR7 -0.17 dB -9.00 dB 4:10 14-Heat
DR7 -0.10 dB -9.37 dB 5:21 15-Offended
DR8 -0.19 dB -9.44 dB 4:25 16-Need Me feat P!nk
DR6 -0.22 dB -7.61 dB 3:03 17-In Your Head
DR6 -0.21 dB -7.71 dB 4:15 18-Castle
DR7 -0.23 dB -9.11 dB 4:35 19-Arose

Number of tracks: 19
Official DR value: DR7

Samplerate: 44100 Hz
Channels: 2
Bits per sample: 24
Bitrate: 1614 kbps
Codec: FLAC

All thanks go to the original releaser