Ensemble Amarillis - Bach & Telemann: Effervescence concertante (2017) [Official Digital Download 24/96]

Posted By: SERTiL
Ensemble Amarillis - Bach & Telemann: Effervescence concertante (2017) [Official Digital Download 24/96]

Ensemble Amarillis - Bach & Telemann: Effervescence concertante (2017)
FLAC (tracks) 24-bit/96 kHz | Time - 51:59 minutes | 977 MB
Studio Master, Official Digital Download | Artwork: Digital booklet

"The idea of this program is to feature concertos for several ensemble instruments in a variety of sound combinations. For example, Telemann's Concerto for flute and recorder is a response to Bach's Concerto for violin and oboe. Telemann chooses the four-movement form, thereby recalling the old sonata da chiesa, whereas Bach adopts the three-movement form created by Vivaldi. The Concerto for harpsichord in F major BWV 1057 is a retranscription Bach himself made of his Fourth Brandenburg Concerto for a command performance in Leipzig. Like other composers of the baroque period, Bach saw no harm in recycling themes or even whole pieces, tweaking them as he wished. The personalities of both of these composers blossom fully with the concertante form. Although they adopt different structures, both show their mastery of the form… Justifiably, they have become true baroque music 'hits'. For a present-day performer, these two figures are complementary. With the musicians of Amarillis, we wanted to bring out and enhance each one’s rhythmic élan, sensibility, and formal inventiveness. Both of them led us to surpass the limits of each instrument, making them resonate together and speak with the same eloquence. Let us hope that this effervescence, which carried us throughout this recording, is infectious!" Héloïse Gaillard

TRACKLIST

01-03. Bach - Concerto for Violin, Oboe, Str. and Cont. in Cm, BWV 1060a
04-07. Telemann - Concerto for Oboe, Violin, Two Flutes and Cont. in B♭, TWV 54:B1
08-10. Bach - Concerto for Harpsichord, Recorders, Str. and Cont. in F, BWV 1057
11-14. Telemann - Concerto for Recorder, Flute, Str. and Cont. in Em, TWV 52:e1

PERSONNEL
Ensemble Amarillis
Héloïse Gaillard (flute)
Violaine Cochard (clavecin)

foobar2000 1.3.7 / Dynamic Range Meter 1.1.1
log date: 2017-07-21 18:19:33

––––––––––––––––––––––––––––––––––––––––
Analyzed: Ensemble Amarillis / Bach & Telemann: Effervescence concertante
––––––––––––––––––––––––––––––––––––––––

DR Peak RMS Duration Track
––––––––––––––––––––––––––––––––––––––––
DR13 -1.66 dB -17.46 dB 4:31 01-Concerto for Violin, Oboe, Strings and Continuo in C Minor, BWV 1060a: I. Allegro
DR13 -3.41 dB -20.40 dB 4:34 02-Concerto for Violin, Oboe, Strings and Continuo in C Minor, BWV 1060a: II. Adagio
DR13 -1.90 dB -18.37 dB 3:22 03-Concerto for Violin, Oboe, Strings and Continuo in C Minor, BWV 1060a: III. Allegro
DR12 -3.72 dB -19.38 dB 1:54 04-Concerto for Oboe, Violin, Two Transverse Flutes and Continuo in B-Flat Major, TWV 54:B1: I. Largo
DR13 -1.89 dB -18.56 dB 2:45 05-Concerto for Oboe, Violin, Two Transverse Flutes and Continuo in B-Flat Major, TWV 54:B1: II. Allegro
DR13 -3.85 dB -20.89 dB 3:31 06-Concerto for Oboe, Violin, Two Transverse Flutes and Continuo in B-Flat Major, TWV 54:B1: III. Dolce
DR13 -1.63 dB -19.71 dB 2:55 07-Concerto for Oboe, Violin, Two Transverse Flutes and Continuo in B-Flat Major, TWV 54:B1: IV. Allegro
DR12 -1.89 dB -18.00 dB 6:40 08-Concerto for Harpsichord, Two Recorders, Strings and Continuo in F Major, BWV 1057: I. No Tempo Marking
DR11 -2.50 dB -18.83 dB 3:15 09-Concerto for Harpsichord, Two Recorders, Strings and Continuo in F Major, BWV 1057: II. Andante
DR12 -1.89 dB -18.54 dB 4:54 10-Concerto for Harpsichord, Two Recorders, Strings and Continuo in F Major, BWV 1057: III. Allegro assai
DR11 -3.40 dB -18.79 dB 3:45 11-Concerto for Recorder, Transverse Flute, Strings and Continuo in E Minor, TWV 52:e1: I. Largo
DR12 -3.42 dB -18.95 dB 4:06 12-Concerto for Recorder, Transverse Flute, Strings and Continuo in E Minor, TWV 52:e1: II. Allegro
DR11 -4.77 dB -21.85 dB 3:12 13-Concerto for Recorder, Transverse Flute, Strings and Continuo in E Minor, TWV 52:e1: III. Largo
DR12 -1.89 dB -16.81 dB 2:39 14-Concerto for Recorder, Transverse Flute, Strings and Continuo in E Minor, TWV 52:e1: IV. Presto
––––––––––––––––––––––––––––––––––––––––

Number of tracks: 14
Official DR value: DR12

Samplerate: 96000 Hz
Channels: 2
Bits per sample: 24
Bitrate: 2607 kbps
Codec: FLAC
================================================================================


Thanks to the Original customer.