Eric Clapton - 461 Ocean Boulevard (1974) [DTS 5.1 High Definition Surround]

Posted By: popsakov
Eric Clapton - 461 Ocean Boulevard (1974) [DTS 5.1 High Definition Surround]

Eric Clapton - 461 Ocean Boulevard (1974) [DTS 5.1 High Definition Surround]
DTS CD | EAC Rip | WV, Img+Cue, Log | Covers: TIF, Full Scans
~ 416 Mb | Filesonic, HF, FileServe | 3% Recovery
Genre: Blues-Rock | Label: HDS | HDS-4419

461 Ocean Boulevard is a 1974 album by blues rock musician Eric Clapton. In creating his first album after quitting heroin and his second after the dissolution of Derek & the Dominos.
The title of the album is the address of a house on Golden Beach in Miami where Clapton was living at the time. The house is featured on the cover. In 2003, the album was ranked number 409 on Rolling Stone magazine's list of the 500 greatest albums of all time.
Track List:

01. Motherless Children
02. Give Me Strength
03. Willie And The Hand Jive
04. Get Ready
05. I Shot The Sheriff
06. I Can't Hold Out
07. Please Be With Me
08. Let It Grow
09. Steady Rollin' Man
10. Mainline Florida

Exact Audio Copy V0.99 prebeta 4 from 23. January 2008

EAC extraction logfile from 7. February 2010, 12:45

Eric Clapton / 461 Ocean Boulevard (HDS DTS 5.1)

Used drive : ATAPI DVD A DH20A4H Adapter: 0 ID: 1

Read mode : Secure
Utilize accurate stream : Yes
Defeat audio cache : Yes
Make use of C2 pointers : No

Read offset correction : 6
Overread into Lead-In and Lead-Out : No
Fill up missing offset samples with silence : Yes
Delete leading and trailing silent blocks : No
Null samples used in CRC calculations : Yes
Used interface : Installed external ASPI interface

Used output format : User Defined Encoder
Selected bitrate : 320 kBit/s
Quality : High
Add ID3 tag : No
Command line compressor : C:\Program Files\EAC1\flac.exe
Additional command line options : -V -8 -T "artist=%a" -T "title=%t" -T "album=%g" -T "date=%y" -T "tracknumber=%n" -T "genre=%m" %s


TOC of the extracted CD

Track | Start | Length | Start sector | End sector
––––––––––––––––––––––––––––-
1 | 0:00.00 | 4:49.12 | 0 | 21686
2 | 4:49.12 | 2:50.50 | 21687 | 34486
3 | 7:39.62 | 3:25.63 | 34487 | 49924
4 | 11:05.50 | 3:47.10 | 49925 | 66959
5 | 14:52.60 | 4:31.20 | 66960 | 87304
6 | 19:24.05 | 4:08.42 | 87305 | 105946
7 | 23:32.47 | 3:24.50 | 105947 | 121296
8 | 26:57.22 | 4:53.50 | 121297 | 143321
9 | 31:50.72 | 3:11.68 | 143322 | 157714
10 | 35:02.65 | 4:15.65 | 157715 | 176904
11 | 39:18.55 | 0:12.50 | 176905 | 177854


Range status and errors

Selected range

Filename C:\Clapton dts\Eric Clapton - 461 Ocean Boulevard (HDS DTS 5.1).wav

Peak level 25.0 %
Range quality 100.0 %
Copy CRC 8768D32B
Copy OK

No errors occurred

End of status report

Eric Clapton - 461 Ocean Boulevard (1974) [DTS 5.1 High Definition Surround]

Eric Clapton - 461 Ocean Boulevard (1974) [DTS 5.1 High Definition Surround]


Filesonic:
part 1 | part 2 | part 3 | part 4 | part 5

HF:
part 1 | part 2 | part 3 | part 4 | part 5

FileServe:
part 1 | part 2 | part 3 | part 4 | part 5

pass: shsv

In case you encounter dead links, please send me a private message!

Visit my blog!