Trinity College Choir Cambridge & Stephen Layton - Finzi: Choral works (2019) [Official Digital Download 24/96]

Posted By: SERTiL
Trinity College Choir Cambridge & Stephen Layton - Finzi: Choral works (2019) [Official Digital Download 24/96]

Trinity College Choir Cambridge & Stephen Layton - Finzi: Choral works (2019)
FLAC (tracks) 24-bit/96 kHz | Time - 74:16 minutes | 1.23 GB
Studio Master, Official Digital Download | Artwork: Digital Booklet

A cluster of choral miniatures culminating in one of Finzi’s most intense, visionary masterpieces: this is some of the most exquisite English choral writing of the last century.

Tracklist:
1. Magnificat, Op 36, 'My soul doth magnify the Lord'
2. Welcome sweet and sacred feast, Op 27 No 3
3. My lovely one, Op 27 No 1
4. God is gone up, Op 27 No 2
5. Stephen Layton: Trinity College Choir Cambridge - Bednall: Nunc dimittis, 'Lord, now lettest thou thy servant depart in peace'
6. White-flowering days, Op 37, 'Now the white-flowering days'
7. All this night, Op 33
8. Seven poems of Robert Bridges, Op 17 - 1: I praise the tender flower
9. Seven poems of Robert Bridges, Op 17 - 2: I have loved flowers that fade
10. Seven poems of Robert Bridges, Op 17 - 3: My spirit sang all day
11. Seven poems of Robert Bridges, Op 17 - 4: Clear and gentle stream
12. Seven poems of Robert Bridges, Op 17 - 5: Nightingales
13. Seven poems of Robert Bridges, Op 17 - 6: Haste on, my joys!
14. Seven poems of Robert Bridges, Op 17 - 7: Wherefore tonight so full of care
15. Lo, the full, final sacrifice, Op 26

foobar2000 1.3.7 / Dynamic Range Meter 1.1.1
log date: 2019-09-06 21:11:40

––––––––––––––––––––––––––––––––––––––––
Analyzed: Stephen Layton: Trinity College Choir Cambridge / Finzi: Choral works
––––––––––––––––––––––––––––––––––––––––

DR Peak RMS Duration Track
––––––––––––––––––––––––––––––––––––––––
DR13 -3.46 dB -22.56 dB 9:53 01-Finzi: Magnificat, Op 36, 'My soul doth magnify the Lord'
DR15 -4.86 dB -26.67 dB 7:36 02-Finzi: Welcome sweet and sacred feast, Op 27 No 3
DR11 -10.72 dB -28.51 dB 2:47 03-Finzi: My lovely one, Op 27 No 1
DR13 -0.67 dB -19.14 dB 4:43 04-Finzi: God is gone up, Op 27 No 2
DR13 -3.24 dB -22.73 dB 8:23 05-Bednall: Nunc dimittis, 'Lord, now lettest thou thy servant depart in peace'
DR13 -5.76 dB -26.17 dB 3:57 06-Finzi: White-flowering days, Op 37, 'Now the white-flowering days'
DR12 -6.11 dB -22.72 dB 2:35 07-Finzi: All this night, Op 33
DR12 -8.34 dB -26.65 dB 2:14 08-Finzi: Seven poems of Robert Bridges, Op 17 - 1: I praise the tender flower
DR13 -7.13 dB -29.16 dB 2:52 09-Finzi: Seven poems of Robert Bridges, Op 17 - 2: I have loved flowers that fade
DR12 -6.22 dB -25.38 dB 1:43 10-Finzi: Seven poems of Robert Bridges, Op 17 - 3: My spirit sang all day
DR14 -11.11 dB -30.20 dB 4:02 11-Finzi: Seven poems of Robert Bridges, Op 17 - 4: Clear and gentle stream
DR13 -6.21 dB -28.17 dB 2:55 12-Finzi: Seven poems of Robert Bridges, Op 17 - 5: Nightingales
DR12 -8.67 dB -26.20 dB 1:57 13-Finzi: Seven poems of Robert Bridges, Op 17 - 6: Haste on, my joys!
DR13 -7.26 dB -26.58 dB 3:26 14-Finzi: Seven poems of Robert Bridges, Op 17 - 7: Wherefore tonight so full of care
DR16 -0.41 dB -23.60 dB 15:19 15-Finzi: Lo, the full, final sacrifice, Op 26
––––––––––––––––––––––––––––––––––––––––

Number of tracks: 15
Official DR value: DR13

Samplerate: 96000 Hz
Channels: 2
Bits per sample: 24
Bitrate: 2408 kbps
Codec: FLAC
================================================================================