Fleetwood Mac - Fleetwood Mac (1975) [Deluxe Edition 2018]

Posted By: pyatak
Fleetwood Mac - Fleetwood Mac (1975) [Deluxe Edition 2018]

Fleetwood Mac - Fleetwood Mac (1975) [Deluxe Edition 2018]
FLAC (tracks) 24-bit/96 kHz | Front Cover | Time - 03:26:00 | 3,96 GB
Rock | Label: Rhino/Warner Bros, Official Digital Download

FLEETWOOD MAC : EXPANDED EDITION features a newly remastered version of the original album along with single mixes for “Over My Head,” “Rhiannon,” “Say You Love Me.” Also included is a second disc with an alternate version of the complete album comprised of unreleased outtakes for each album track, plus several unreleased live performances from 1976.

TRACKLIST

CD1
1. Fleetwood Mac - Monday Morning (Remastered)
2. Fleetwood Mac - Warm Ways (Remastered)
3. Fleetwood Mac - Blue Letter (Remastered)
4. Fleetwood Mac - Rhiannon (Remastered)
5. Fleetwood Mac - Over My Head (Remastered)
6. Fleetwood Mac - Crystal (Remastered)
7. Fleetwood Mac - Say You Love Me (Remastered)
8. Fleetwood Mac - Landslide (Remastered)
9. Fleetwood Mac - World Turning (Remastered)
10. Fleetwood Mac - Sugar Daddy (Remastered)
11. Fleetwood Mac - I'm So Afraid (Remastered)
12. Fleetwood Mac - Over My Head (Remastered)
13. Fleetwood Mac - Rhiannon (Will You Ever Win) (Remastered)
14. Fleetwood Mac - Say You Love Me (Remastered)
15. Fleetwood Mac - Blue Letter (Single Version)

foobar2000 1.3.16 / Dynamic Range Meter 1.1.1
log date: 2018-01-18 21:55:39

––––––––––––––––––––––––––––––––––––––––
Analyzed: Fleetwood Mac / Fleetwood Mac (Deluxe)
––––––––––––––––––––––––––––––––––––––––

DR Peak RMS Duration Track
––––––––––––––––––––––––––––––––––––––––
DR9 -0.61 dB -11.40 dB 2:49 01-Monday Morning (Remastered)
DR10 -0.86 dB -13.46 dB 3:54 02-Warm Ways (Remastered)
DR9 -0.40 dB -11.23 dB 2:41 03-Blue Letter (Remastered)
DR8 -0.91 dB -10.27 dB 4:10 04-Rhiannon (Remastered)
DR10 -1.08 dB -13.74 dB 3:38 05-Over My Head (Remastered)
DR10 -0.20 dB -14.49 dB 5:11 06-Crystal (Remastered)
DR9 -0.77 dB -11.99 dB 4:10 07-Say You Love Me (Remastered)
DR10 -1.93 dB -14.01 dB 3:19 08-Landslide (Remastered)
DR10 -0.75 dB -14.27 dB 4:25 09-World Turning (Remastered)
DR11 -0.30 dB -12.02 dB 4:10 10-Sugar Daddy (Remastered)
DR9 -0.48 dB -11.07 dB 4:30 11-I'm So Afraid (Remastered)
DR10 -0.56 dB -13.29 dB 3:10 12-Over My Head (Single Version) [Remastered]
DR9 -1.37 dB -11.83 dB 3:48 13-Rhiannon (Will You Ever Win) [Single Version] [Remastered]
DR8 -0.76 dB -11.89 dB 4:03 14-Say You Love Me (Single Version) [Remastered]
DR10 -0.83 dB -11.81 dB 2:42 15-Blue Letter (Single Version)
––––––––––––––––––––––––––––––––––––––––

Number of tracks: 15
Official DR value: DR9

Samplerate: 96000 Hz
Channels: 2
Bits per sample: 24
Bitrate: 2874 kbps
Codec: FLAC
================================================================================



CD2
16. Fleetwood Mac - Monday Morning (Early Take)
17. Fleetwood Mac - Warm Ways (Early Take)
18. Fleetwood Mac - Blue Letter (Early Take)
19. Fleetwood Mac - Rhiannon (Early Take)
20. Fleetwood Mac - Over My Head (Early Take)
21. Fleetwood Mac - Crystal (Early Version)
22. Fleetwood Mac - Say You Love Me (Early Version)
23. Fleetwood Mac - Landslide (Early Version)
24. Fleetwood Mac - World Turning (Early Version)
25. Fleetwood Mac - Sugar Daddy (Early Take)
26. Fleetwood Mac - I'm So Afraid (Early Version)
27. Fleetwood Mac - Over My Head (Live from The Burbank Studios, Burbank, CA, 1/26/76)
28. Fleetwood Mac - Rhiannon (Live from The Burbank Studios, Burbank, CA, 1/26/76)
29. Fleetwood Mac - Why (Live from The Burbank Studios, Burbank, CA, 1/26/76)
30. Fleetwood Mac - World Turning (Live from The Burbank Studios, Burbank, CA, 1/26/76)
31. Fleetwood Mac - Jam #2 (Remastered)
32. Fleetwood Mac - I'm So Afraid (Early Take Instrumental)

foobar2000 1.3.16 / Dynamic Range Meter 1.1.1
log date: 2018-01-18 21:56:35

––––––––––––––––––––––––––––––––––––––––
Analyzed: Fleetwood Mac / Fleetwood Mac (Deluxe)
––––––––––––––––––––––––––––––––––––––––

DR Peak RMS Duration Track
––––––––––––––––––––––––––––––––––––––––
DR11 0.00 dB -12.34 dB 2:50 01-Monday Morning (Early Take)
DR12 -0.46 dB -15.14 dB 3:54 02-Warm Ways (Early Take)
DR11 -0.10 dB -12.82 dB 2:49 03-Blue Letter (Early Take)
DR10 -0.01 dB -12.06 dB 4:36 04-Rhiannon (Early Take)
DR13 -0.24 dB -15.07 dB 2:58 05-Over My Head (Early Take)
DR11 -0.26 dB -15.22 dB 4:05 06-Crystal (Early Version)
DR12 -0.10 dB -14.03 dB 4:18 07-Say You Love Me (Early Version)
DR11 -1.23 dB -15.89 dB 3:18 08-Landslide (Early Version)
DR12 -0.49 dB -15.28 dB 5:40 09-World Turning (Early Version)
DR12 -0.21 dB -14.53 dB 4:07 10-Sugar Daddy (Early Take)
DR12 -0.01 dB -13.80 dB 4:49 11-I'm So Afraid (Early Version)
DR15 0.00 dB -16.18 dB 3:03 12-Over My Head (Live from The Burbank Studios, Burbank, CA, 1/26/76)
DR11 0.00 dB -13.95 dB 6:37 13-Rhiannon (Live from The Burbank Studios, Burbank, CA, 1/26/76)
DR16 -0.08 dB -19.33 dB 4:00 14-Why (Live from The Burbank Studios, Burbank, CA, 1/26/76)
DR13 -0.05 dB -16.25 dB 5:18 15-World Turning (Live from The Burbank Studios, Burbank, CA, 1/26/76)
DR14 0.00 dB -16.78 dB 5:36 16-Jam #2 (Remastered)
DR13 -0.04 dB -14.62 dB 7:13 17-I'm So Afraid (Early Take Instrumental)
––––––––––––––––––––––––––––––––––––––––

Number of tracks: 17
Official DR value: DR12

Samplerate: 96000 Hz
Channels: 2
Bits per sample: 24
Bitrate: 2623 kbps
Codec: FLAC
================================================================================



CD3
33. Fleetwood Mac - Get Like You Used To Be (Live at Capitol Theatre, Passaic, NJ, 10/17/75)
34. Fleetwood Mac - Station Man (Live at Jorgensen Auditorium, University of Connecticut, Storrs, CT, 10/25/75)
35. Fleetwood Mac - Spare Me A Little (Live at Jorgensen Auditorium, University of Connecticut, Storrs, CT, 10/25/75)
36. Fleetwood Mac - Rhiannon (Live at Jorgensen Auditorium, University of Connecticut, Storrs, CT, 10/25/75)
37. Fleetwood Mac - Why (Live at Jorgensen Auditorium, University of Connecticut, Storrs, CT, 10/25/75)
38. Fleetwood Mac - Landslide (Live at Jorgensen Auditorium, University of Connecticut, Storrs, CT, 10/25/75)
39. Fleetwood Mac - Over My Head (Live at Campus Stadium, University of California, Santa Barbara, CA 5/2/76)
40. Fleetwood Mac - I'm So Afraid (Live at Capitol Theatre, Passaic, NJ, 10/17/75)
41. Fleetwood Mac - Oh Well (Live at Capitol Theatre, Passaic, NJ, 10/17/75)
42. Fleetwood Mac - The Green Manalishi (With The Two Pronged Crown) (Live at Capitol Theatre, Passaic, NJ, 10/17/75)
43. Fleetwood Mac - World Turning (Live at Capitol Theatre, Passaic, NJ, 10/17/75)
44. Fleetwood Mac - Blue Letter (Live at Capitol Theatre, Passaic, NJ, 10/17/75)
45. Fleetwood Mac - Don't Let Me Down Again (Live at Jorgensen Auditorium, University of Connecticut, Storrs, CT, 10/25/75)
46. Fleetwood Mac - Hypnotized (Live at Jorgensen Auditorium, University of Connecticut, Storrs, CT, 10/25/75)

foobar2000 1.3.16 / Dynamic Range Meter 1.1.1
log date: 2018-01-18 21:57:56

––––––––––––––––––––––––––––––––––––––––
Analyzed: Fleetwood Mac / Fleetwood Mac (Deluxe)
––––––––––––––––––––––––––––––––––––––––

DR Peak RMS Duration Track
––––––––––––––––––––––––––––––––––––––––
DR10 -0.39 dB -13.10 dB 4:24 01-Get Like You Used To Be (Live at Capitol Theatre, Passaic, NJ, 10/17/75)
DR11 0.00 dB -12.75 dB 6:18 02-Station Man (Live at Jorgensen Auditorium, University of Connecticut, Storrs, CT, 10/25/75)
DR10 0.00 dB -12.35 dB 4:30 03-Spare Me A Little (Live at Jorgensen Auditorium, University of Connecticut, Storrs, CT, 10/25/75)
DR8 0.00 dB -10.81 dB 7:57 04-Rhiannon (Live at Jorgensen Auditorium, University of Connecticut, Storrs, CT, 10/25/75)
DR10 0.00 dB -12.69 dB 4:22 05-Why (Live at Jorgensen Auditorium, University of Connecticut, Storrs, CT, 10/25/75)
DR11 -3.55 dB -19.16 dB 3:55 06-Landslide (Live at Jorgensen Auditorium, University of Connecticut, Storrs, CT, 10/25/75)
DR10 0.00 dB -12.56 dB 3:24 07-Over My Head (Live at Campus Stadium, University of California, Santa Barbara, CA 5/2/76)
DR9 0.00 dB -11.64 dB 5:47 08-I'm So Afraid (Live at Capitol Theatre, Passaic, NJ, 10/17/75)
DR10 0.00 dB -13.81 dB 3:00 09-Oh Well (Live at Capitol Theatre, Passaic, NJ, 10/17/75)
DR9 0.00 dB -11.56 dB 5:31 10-The Green Manalishi (With The Two Pronged Crown) [Live at Capitol Theatre, Passaic, NJ, 10/17/75]
DR12 0.00 dB -14.23 dB 8:35 11-World Turning (Live at Capitol Theatre, Passaic, NJ, 10/17/75)
DR11 0.00 dB -12.14 dB 3:39 12-Blue Letter (Live at Capitol Theatre, Passaic, NJ, 10/17/75)
DR11 0.00 dB -12.58 dB 4:06 13-Don't Let Me Down Again (Live at Jorgensen Auditorium, University of Connecticut, Storrs, CT, 10/25/75)
DR11 0.00 dB -15.38 dB 9:46 14-Hypnotized (Live at Jorgensen Auditorium, University of Connecticut, Storrs, CT, 10/25/75)
––––––––––––––––––––––––––––––––––––––––

Number of tracks: 14
Official DR value: DR10

Samplerate: 96000 Hz
Channels: 2
Bits per sample: 24
Bitrate: 2745 kbps
Codec: FLAC
================================================================================



Thanks to the Original customer.