Robert Smith - Georg Philipp Telemann: Fantasias for Viola da Gamba (2017) [Official Digital Download 24/96]

Posted By: SERTiL
Robert Smith - Georg Philipp Telemann: Fantasias for Viola da Gamba (2017) [Official Digital Download 24/96]

Robert Smith - Georg Philipp Telemann: Fantasias for Viola da Gamba (2017)
FLAC (tracks) 24-bit/96 kHz | Time - 78:54 minutes | 1.32 GB
Studio Master, Official Digital Download | Artwork: Digital Booklet

Lost to the world for centuries, the recent rediscovery in 2015 of Georg Philipp Telemann’s twelve Fantasias for viola da gamba represents a major addition to the solo repertoire of the instrument.

In the year of the 250th anniversary of Telemann’s death, acclaimed Amsterdam-based gambist Robert Smith brings these long forgotten works back to life with this striking recording of the complete set of twelve fantasias in a vital addition to the Telemann discography - one of earliest recordings of these eagerly anticipated works.

'Whatever the [music's] mood, this is playing of exceptional quality. Robert Smith navigates each piece with clear-eyed musicality, always weaving a beautifully sonorous, coherent line through Telemann’s rich invention.' (The Observer)

'Under Smith’s experienced, marvellously sensitive hands, these works burst into life, and a dazzling array of invention and technique is unfolded before the listener. Smith’s particular talent is to allow the instrument to speak with total naturalness, keeping the music rhythmically buoyant and skilfully applying subtle rubato' (Europadisc)

Tracklist:

Georg Philipp Telemann (1681-1767)

01. Fantasia No. 1 in C Minor, TWV 40:26: I. Adagio - Allegro - Adagio - Allegro
02. Fantasia No. 1 in C Minor, TWV 40:26: II. Allegro
03. Fantasia No. 2 in D Major, TWV 40:27: I. Vivace & Andante
04. Fantasia No. 2 in D Major, TWV 40:27: II. Presto
05. Fantasia No. 3 in E Minor, TWV 40:28: I. Largo
06. Fantasia No. 3 in E Minor, TWV 40:28: II. Presto
07. Fantasia No. 3 in E Minor, TWV 40:28: III. Vivace
08. Fantasia No. 4 in F Major, TWV 40:29: I. Vivace
09. Fantasia No. 4 in F Major, TWV 40:29: II.Grave
10. Fantasia No. 4 in F Major, TWV 40:29: III. Allegro
11. Fantasia No. 5 in B Flat Major, TWV 40:30: I. Allegro
12. Fantasia No. 5 in B Flat Major, TWV 40:30: II. Largo
13. Fantasia No. 5 in B Flat Major, TWV 40:30: III. Allegro
14. Fantasia No. 6 in G Major, TWV 40:31: I. Scherzando
15. Fantasia No. 6 in G Major, TWV 40:31: II. Dolce
16. Fantasia No. 6 in G Major, TWV 40:31: III. Spirituoso
17. Fantasia No. 7 in G Minor, TWV 40:32: I. Andante
18. Fantasia No. 7 in G Minor, TWV 40:32: II. Vivace
19. Fantasia No. 7 in G Minor, TWV 40:32: III. Allegro
20. Fantasia No. 8 in A Major, TWV 40:33: I. Allegro
21. Fantasia No. 8 in A Major, TWV 40:33: II. Grave
22. Fantasia No. 8 in A Major, TWV 40:33: III. Vivace
23. Fantasia No. 9 in C Major, TWV 40:34: I. Presto
24. Fantasia No. 9 in C Major, TWV 40:34: II. Grave
25. Fantasia No. 9 in C Major, TWV 40:34: III. Allegro
26. Fantasia No. 10 in E Major, TWV 40:35: I. Dolce - Allegro - Dolce - Allegro
27. Fantasia No. 10 in E Major, TWV 40:35: II. Siciliana
28. Fantasia No. 10 in E Major, TWV 40:35: III. Scherzando
29. Fantasia No. 11 in D Minor, TWV 40:36: I. Allegro
30. Fantasia No. 11 in D Minor, TWV 40:36: II. Grave
31. Fantasia No. 11 in D Minor, TWV 40:36: III. Allegro
32. Fantasia No. 12 in E Flat Major, TWV 40:37: I. Andante
33. Fantasia No. 12 in E Flat Major, TWV 40:37: II. Allegro
34. Fantasia No. 12 in E Flat Major, TWV 40:37: III. Vivace

Personnel:
Robert Smith, viola da gamba

foobar2000 1.3.7 / Dynamic Range Meter 1.1.1
log date: 2017-11-30 20:42:11

––––––––––––––––––––––––––––––––––––––––
Analyzed: Robert Smith / Telemann: Fantasias for Viola da Gamba
––––––––––––––––––––––––––––––––––––––––

DR Peak RMS Duration Track
––––––––––––––––––––––––––––––––––––––––
DR13 -9.69 dB -30.46 dB 3:27 01-Fantasia No. 1 in C Minor, TWV 40:26: I. Adagio - Allegro - Adagio - Allegro
DR12 -13.20 dB -29.47 dB 2:16 02-Fantasia No. 1 in C Minor, TWV 40:26: II. Allegro
DR14 -12.03 dB -29.51 dB 7:16 03-Fantasia No. 2 in D Major, TWV 40:27: I. Vivace & Andante
DR13 -13.89 dB -30.20 dB 1:22 04-Fantasia No. 2 in D Major, TWV 40:27: II. Presto
DR13 -12.93 dB -31.58 dB 2:38 05-Fantasia No. 3 in E Minor, TWV 40:28: I. Largo
DR13 -8.88 dB -26.67 dB 1:45 06-Fantasia No. 3 in E Minor, TWV 40:28: II. Presto
DR13 -13.02 dB -31.42 dB 1:21 07-Fantasia No. 3 in E Minor, TWV 40:28: III. Vivace
DR13 -12.46 dB -30.31 dB 4:01 08-Fantasia No. 4 in F Major, TWV 40:29: I. Vivace
DR11 -16.61 dB -33.96 dB 0:47 09-Fantasia No. 4 in F Major, TWV 40:29: II.Grave
DR12 -11.76 dB -30.75 dB 1:36 10-Fantasia No. 4 in F Major, TWV 40:29: III. Allegro
DR12 -10.82 dB -29.32 dB 2:32 11-Fantasia No. 5 in B Flat Major, TWV 40:30: I. Allegro
DR12 -15.37 dB -33.01 dB 0:59 12-Fantasia No. 5 in B Flat Major, TWV 40:30: II. Largo
DR14 -11.19 dB -29.48 dB 1:27 13-Fantasia No. 5 in B Flat Major, TWV 40:30: III. Allegro
DR13 -12.05 dB -28.78 dB 2:06 14-Fantasia No. 6 in G Major, TWV 40:31: I. Scherzando
DR13 -14.96 dB -32.59 dB 2:49 15-Fantasia No. 6 in G Major, TWV 40:31: II. Dolce
DR14 -12.14 dB -31.17 dB 1:13 16-Fantasia No. 6 in G Major, TWV 40:31: III. Spirituoso
DR14 -12.79 dB -32.38 dB 4:36 17-Fantasia No. 7 in G Minor, TWV 40:32: I. Andante
DR15 -9.87 dB -29.93 dB 1:25 18-Fantasia No. 7 in G Minor, TWV 40:32: II. Vivace
DR17 -10.58 dB -31.44 dB 1:43 19-Fantasia No. 7 in G Minor, TWV 40:32: III. Allegro
DR13 -12.48 dB -29.09 dB 1:57 20-Fantasia No. 8 in A Major, TWV 40:33: I. Allegro
DR13 -11.87 dB -30.45 dB 1:55 21-Fantasia No. 8 in A Major, TWV 40:33: II. Grave
DR12 -8.86 dB -29.32 dB 1:46 22-Fantasia No. 8 in A Major, TWV 40:33: III. Vivace
DR12 -12.13 dB -28.61 dB 2:10 23-Fantasia No. 9 in C Major, TWV 40:34: I. Presto
DR13 -13.72 dB -32.33 dB 3:07 24-Fantasia No. 9 in C Major, TWV 40:34: II. Grave
DR14 -13.42 dB -30.55 dB 1:53 25-Fantasia No. 9 in C Major, TWV 40:34: III. Allegro
DR12 -10.97 dB -28.82 dB 2:47 26-Fantasia No. 10 in E Major, TWV 40:35: I. Dolce - Allegro - Dolce - Allegro
DR13 -11.82 dB -31.76 dB 2:39 27-Fantasia No. 10 in E Major, TWV 40:35: II. Siciliana
DR13 -10.50 dB -29.14 dB 2:02 28-Fantasia No. 10 in E Major, TWV 40:35: III. Scherzando
DR12 -8.25 dB -27.57 dB 2:05 29-Fantasia No. 11 in D Minor, TWV 40:36: I. Allegro
DR11 -15.08 dB -32.75 dB 2:06 30-Fantasia No. 11 in D Minor, TWV 40:36: II. Grave
DR12 -10.11 dB -29.05 dB 2:05 31-Fantasia No. 11 in D Minor, TWV 40:36: III. Allegro
DR14 -14.69 dB -33.81 dB 2:57 32-Fantasia No. 12 in E Flat Major, TWV 40:37: I. Andante
DR12 -11.80 dB -31.34 dB 2:09 33-Fantasia No. 12 in E Flat Major, TWV 40:37: II. Allegro
DR13 -15.40 dB -31.61 dB 2:19 34-Fantasia No. 12 in E Flat Major, TWV 40:37: III. Vivace
––––––––––––––––––––––––––––––––––––––––

Number of tracks: 34
Official DR value: DR13

Samplerate: 96000 Hz
Channels: 2
Bits per sample: 24
Bitrate: 2358 kbps
Codec: FLAC
================================================================================


Thanks to the Original customer.