Daniel Behle, Armonia Atenea & George Petrou - Gluck: Opera Arias (2014) [Official Digital Download 24/96]

Posted By: SERTiL
Daniel Behle, Armonia Atenea & George Petrou - Gluck: Opera Arias (2014) [Official Digital Download 24/96]

Daniel Behle, Armonia Atenea & George Petrou - Gluck: Opera Arias (2014)
FLAC (tracks) 24-bit/96 kHz | Time - 72:11 minutes | 1.36 GB
Studio Master, Official Digital Download | Artwork: Digital Booklet

Celebrating the 300th anniversary of Gluck’s birth, Daniel Behle presents this album of Gluck’s lesser known opera arias. Showcasing their rich variety of styles, he illustrates that these works are primed for revival.

In the world of opera the artistic achievement of singers and their fellow musicians can create a special, incendiary chemistry with an audience. There is nothing like that magical moment of silence at the end of a marvellous aria before the first cries of „Bravo!“ ring out.

For his Gluck recital the German tenor Daniel Behle has chosen glorious arias by a master of the 18th century – Christoph Willibald Gluck – that are sure to elicit a rapturous response, especially when performed by one of the finest lyric tenors of our time.

Behle has been compared to such tenor legends as Fritz Wunderlich, Richard Tauber and Anton Dermota, praised for his “bright, supple and warm timbre” and his natural musicality (Fono Forum, August 2012). The beauty of his tone is complemented by the probing nature of his interpretations as he captures the emotions of each character with captivating psychological insight, playing in a masterly fashion with the colours of the music. Familiar arias are transformed into a new and moving experience.

Daniel Behle is accompanied by one of Europe’s leading Baroque orchestras, Armonia Atenea, conducted by the extraordinary George Petrou. 

Tracklist:
01. Gluck: Antigono, Wq 21-Ed. Giovanni Secchi-"Quercia annosa sull’erte pendici"
02. Gluck: La Semiramide riconosciuta, Wq 13-Ed. Giovanni Secchi-"Io veggo in lontananza"
03. Gluck: Ipermestra, Wq 7-Ed. Giovanni Secchi-"Non hai cor per un'impresa"
04. Gluck: Ezio, Wq 31-Ed. Giovanni Secchi-"Se povero il ruscello"
05. Gluck: La Semiramide riconosciuta, Wq 13-Ed. Giovanni Secchi-"Bel piacer saria d'un core"
06. Gluck: La Contesa de'numi, Wq 14-Ed. Giovanni Secchi-"Qual ira intempestiva … Oggi per me non sudi"
07. Gluck: La Contesa de'numi, Wq 14-Ed. Giovanni Secchi-"Oggi per me sudi"-Aria
08. Gluck: Le Cinesi, Wq 18-Ed. Giovanni Secchi-"Son lungi e non mi brami "
09. Gluck: Iphigénie en Aulide, Wq 40-Ed. Giovanni Secchi-"Cruelle, non jamais votre insensible coeur ne fut touché de mon amour"
10. Gluck: Orphée et Eurydice, Wq. 30-Ed. Giovanni Secchi-"J'ai perdu mon Eurydice"
11. Gluck: La Rencontre imprévue, Wq 32-ed. Giovanni Secchi-"Je chérirai, jusqu’au trépas"
12. Gluck: Armide, Wq 45-Ed. Giovanni Secchi-"Plus j'observe ces lieux"

Personnel:
Daniel Behle, tenor
Armonia Atenea
Georges Petrou, conductor

foobar2000 1.3.7 / Dynamic Range Meter 1.1.1
log date: 2017-12-06 17:58:04

––––––––––––––––––––––––––––––––––––––––
Analyzed: Armonia Atenea & George Petrou & Daniel Behle / Gluck: Opera Arias (1-2)
Armonia Atenea and Daniel Behle and George Petrou / Gluck: Opera Arias (3-5)
Daniel Behle & Armonia Atenea & George Petrou / Gluck: Opera Arias (6)
Daniel Behle & George Petrou & Armonia Atenea / Gluck: Opera Arias (7-8)
George Petrou & Armonia Atenea & Daniel Behle / Gluck: Opera Arias (9-11)
George Petrou & Daniel Behle & Armonia Atenea / Gluck: Opera Arias (12)
––––––––––––––––––––––––––––––––––––––––

DR Peak RMS Duration Track
––––––––––––––––––––––––––––––––––––––––
DR12 0.00 dB -14.60 dB 4:07 01-Gluck: Antigono, Wq 21-Ed. Giovanni Secchi-"Quercia annosa sull’erte pendici"
DR15 -0.79 dB -19.55 dB 7:46 02-Gluck: La Semiramide riconosciuta, Wq 13-Ed. Giovanni Secchi-"Io veggo in lontananza"
DR14 -0.35 dB -17.90 dB 4:25 06-Gluck: La Contesa de'numi, Wq 14-Ed. Giovanni Secchi-"Qual ira intempestiva … Oggi per me non sudi"
DR12 -0.10 dB -14.94 dB 2:48 09-Gluck: Iphigénie en Aulide, Wq 40-Ed. Giovanni Secchi-"Cruelle, non jamais votre insensible coeur ne fut touché de mon amour"
DR13 -1.74 dB -20.82 dB 8:10 12-Gluck: Armide, Wq 45-Ed. Giovanni Secchi-"Plus j'observe ces lieux"
DR14 -0.03 dB -17.87 dB 7:35 05-Gluck: La Semiramide riconosciuta, Wq 13-Ed. Giovanni Secchi-"Bel piacer saria d'un core"
DR14 -0.05 dB -17.27 dB 6:40 03-Gluck: Ipermestra, Wq 7-Ed. Giovanni Secchi-"Non hai cor per un'impresa"
DR14 -0.15 dB -17.49 dB 7:08 08-Gluck: Le Cinesi, Wq 18-Ed. Giovanni Secchi-"Son lungi e non mi brami "
DR15 -1.18 dB -21.27 dB 9:48 04-Gluck: Ezio, Wq 31-Ed. Giovanni Secchi-"Se povero il ruscello"
DR13 -0.16 dB -15.29 dB 4:24 07-Gluck: La Contesa de'numi, Wq 14-Ed. Giovanni Secchi-"Oggi per me sudi"-Aria
DR14 -1.55 dB -20.20 dB 5:01 11-Gluck: La Rencontre imprévue, Wq 32-ed. Giovanni Secchi-"Je chérirai, jusqu’au trépas"
DR13 -0.03 dB -17.62 dB 4:23 10-Gluck: Orphée et Eurydice, Wq. 30-Ed. Giovanni Secchi-"J'ai perdu mon Eurydice"
––––––––––––––––––––––––––––––––––––––––

Number of tracks: 12
Official DR value: DR14

Samplerate: 96000 Hz
Channels: 2
Bits per sample: 24
Bitrate: 2642 kbps
Codec: FLAC
================================================================================


Thanks to the Original customer.