Green Day - Greatest Hits: God's Favorite Band (2017) [Official Digital Download 24/88]

Posted By: Pisulik
Green Day - Greatest Hits: God's Favorite Band (2017) [Official Digital Download 24/88]

Green Day - Greatest Hits: God's Favorite Band (2017)
FLAC (tracks) 24-bit/88.2 kHz | Time - 76:10 minutes | 1,56 GB
Studio Master, Official Digital Download | Artwork: Front cover

Grammy Award-winning Rock and Roll Hall of Fame inductees Green Day will release Greatest Hits: God’s Favorite Band on 17th November. The album includes 20 hits spanning the band’s prolific 21 years as a band, plus a brand new song called “Back In The USA” and a new duet with award-winning Country Music superstar Miranda Lambert on “Ordinary World.” On 22nd March, God miraculously came down to the Ed Sullivan Theatre to introduce Green Day as “God’s Favorite Band” on The Late Show with Stephen Colbert. When God speaks people listen, and he granted Green Day the title: Greatest Hits: God’s Favorite Band. The collection chronicles the sonic journey of one of the most essential and dynamic rock bands in recent history. Formed in 1986 in Berkeley, CA, Green Day achieved breakout success with 1994’s Dookie which has sold over 10 million copies to date in the U.S. alone. Widely credited with popularizing and reviving mainstream interest in punk rock, Green Day would go on to release Insomniac (1995), Nimrod (1997), and Warning (2000). In 2004, Green Day released the rock opera American Idiot which captured the nation’s attention, hitting No 1 in the UK album chart. In 2010, a stage adaptation of American Idiot debuted on Broadway. The band went on to release the critically acclaimed 21st Century Breakdown (2009) and the album trilogy Green Day ¡Uno!, Green Day ¡Dos!, and Green Day ¡Tré (2012). In 2016 the band returned with Revolution Radio which again hit No1 in the UK album chart.

Tracklist:

01. 2000 Light Years Away
02. Longview
03. Welcome to Paradise
04. Basket Case
05. When I Come Around
06. She
07. Brain Stew
08. Hitchin' A Ride
09. Good Riddance (Time of Your Life)
10. Minority
11. Warning
12. American Idiot
13. Holiday
14. Boulevard of Broken Dreams
15. Wake Me Up When September Ends
16. Know Your Enemy
17. 21 Guns
18. Oh Love
19. Bang Bang
20. Still Breathing
21. Ordinary World (feat. Miranda Lambert)
22. Back in the USA

foobar2000 1.3.7 / Dynamic Range Meter 1.1.1
log date: 2017-11-17 01:46:56

––––––––––––––––––––––––––––––––––––––––
Analyzed: Green Day / Greatest Hits: God's Favorite Band
––––––––––––––––––––––––––––––––––––––––

DR Peak RMS Duration Track
––––––––––––––––––––––––––––––––––––––––
DR5 -0.12 dB -6.63 dB 2:25 01-2000 Light Years Away
DR6 -0.13 dB -9.20 dB 3:57 02-Longview
DR6 -0.25 dB -7.21 dB 3:45 03-Welcome to Paradise
DR6 -0.17 dB -7.52 dB 3:03 04-Basket Case
DR6 -0.16 dB -7.27 dB 2:59 05-When I Come Around
DR6 -0.21 dB -7.56 dB 2:16 06-She
DR7 -0.21 dB -9.54 dB 3:15 07-Brain Stew
DR5 -0.25 dB -6.80 dB 2:53 08-Hitchin' A Ride
DR8 -0.03 dB -10.90 dB 2:35 09-Good Riddance (Time of Your Life)
DR5 -0.18 dB -6.82 dB 2:50 10-Minority
DR6 -0.19 dB -6.70 dB 3:43 11-Warning
DR5 0.00 dB -5.99 dB 2:57 12-American Idiot
DR5 0.00 dB -6.08 dB 3:53 13-Holiday
DR5 0.00 dB -6.64 dB 4:22 14-Boulevard of Broken Dreams
DR5 0.00 dB -7.63 dB 4:46 15-Wake Me Up When September Ends
DR6 0.00 dB -6.91 dB 3:12 16-Know Your Enemy
DR6 -0.08 dB -8.04 dB 5:25 17-21 Guns
DR6 0.00 dB -8.15 dB 5:04 18-Oh Love
DR4 -0.12 dB -5.41 dB 3:27 19-Bang Bang
DR5 -0.12 dB -7.09 dB 3:46 20-Still Breathing
DR8 -0.24 dB -11.37 dB 3:01 21-Ordinary World (feat. Miranda Lambert)
DR5 0.00 dB -5.91 dB 2:36 22-Back in the USA
––––––––––––––––––––––––––––––––––––––––

Number of tracks: 22
Official DR value: DR6

Samplerate: 88200 Hz
Channels: 2
Bits per sample: 24
Bitrate: 3039 kbps
Codec: FLAC
================================================================================


All thanks go to the original releaser