Grover Washington, Jr. - Winelight (1980) [DVD-A to FLAC 24/96-192] Reissue 2002 {Repost}

Posted By: tiburon
Grover Washington, Jr. - Winelight (1980) [DVD-A to FLAC 24/96-192] Reissue 2002 {Repost}

Grover Washington, Jr. - Winelight (1980) [DVDA to FLAC 24/96-192]
DVDA Rip | FLAC tracks 24bit/192kHz | Full Scans 300dpi | 1.5GB + 5% Recovery
Sound Forge Pro | FLAC tracks 24bit/96kHz | Full Scans 300dpi | 848MB + 5% Recovery

Grover Washington, Jr., has long been one of the leaders in what could be called rhythm & jazz, essentially R&B-influenced jazz. Winelight is one of his finest albums, and not primarily because of the Bill Withers hit "Just the Two of Us." It is the five instrumentals that find Washington (on soprano, alto, and tenor) really stretching out. If he had been only interested in sales, Washington's solos could have been half as long and he would have stuck closely to the melody. Instead he really pushes himself on some of these selections, particularly the title cut. A memorable set of high-quality and danceable soul-jazz.
Track List
01. Winelight 7:32
02. Let It Flow (For 'Dr. J') 5:52
03. In The Name Of Love 5:26
04. Take Me There 6:16
05. Just The Two Of Us 7:23
06. Make Me A Memory (Sad Samba) 6:32

musicians
Grover Washington, Jr. - H. Couf soprano, alto and tenor saxes
Ralph MacDonald - congas, percussion, syndrums
Marcus Miller - bass
Steve Gadd - drums
Bill Withers - vocal on track 5
Eric Gale - guitar
Paul Griffin - Fender Rhodes, clavinet
Richard Tee - Fender Rhodes
Bill Eaton - Oberheim synthesizer
Ed Walsh - Oberheim 8-voice synthesizer
Raymond Chew - clevinet
Robert Greenidge - steel drums
Hilda Harris - background vocals
Yvonne Lewis - background vocals
Ullanda McCullough - background vocals

Produced by Grover Washington, Jr. and Ralph MacDonald


––––––––––––––––––––––––––––––––––––––––
Analyzed: Grover Washington, Jr. / Winelight
––––––––––––––––––––––––––––––––––––––––

DR Peak RMS Duration Track
––––––––––––––––––––––––––––––––––––––––
DR11 0.00 dB -13.17 dB 7:34 01-Winelight
DR11 0.00 dB -13.42 dB 5:54 02-Let It Flow (For 'Dr. J')
DR12 0.00 dB -15.34 dB 5:29 03-In The Name Of Love
DR10 0.00 dB -13.05 dB 6:18 04-Take Me There
DR9 0.00 dB -12.31 dB 7:26 05-Just The Two Of Us
DR11 0.00 dB -13.15 dB 6:31 06-Make Me A Memory (Sad Samba)
––––––––––––––––––––––––––––––––––––––––

Number of tracks: 6
Official DR value: DR11

Samplerate: 192000 Hz
Channels: 2
Bits per sample: 24
Bitrate: 5446 kbps
Codec: FLAC
================================================================================

Grover Washington, Jr. - Winelight (1980) [DVD-A to FLAC 24/96-192] Reissue 2002 {Repost}
Grover Washington, Jr. - Winelight (1980) [DVD-A to FLAC 24/96-192] Reissue 2002 {Repost}


Thanks for the raw rip to ksp59