Hank Snow - Spanish Fireball (1967/2017) [Official Digital Download 24/96]

Posted By: Pisulik
Hank Snow - Spanish Fireball (1967/2017) [Official Digital Download 24/96]

Hank Snow - Spanish Fireball (1967/2017)
FLAC (tracks) 24-bit/96 kHz | Time - 30:14 minutes | 679 MB
Studio Master, Official Digital Download | Artwork: Front cover

Canada's greatest contribution to country music, Hank Snow was famous for his "traveling" songs. His original nickname, the Yodelling Ranger, was modified to the Singing Ranger when his high voice changed to the great baritone that graced his hit records. With small stature and huge voice, Snow was a country traditionalist who gave much more to the business than he took. This album was released in RCA Victor 1967 year and became another hit in the discography of Hank Snow.

Tracklist:

01. Spanish Fireball
02. Cross the Brazos at Waco
03. El Paso
04. Nuevo Laerdo
05. Adios Amigo
06. Caribbean
07. Maria Elena
08. Vaya Con Dios
09. Blue Rose of the Rio
10. Cuba Rhumba
11. Senorita Rosalita

foobar2000 1.3.7 / Dynamic Range Meter 1.1.1
log date: 2017-12-05 01:44:23

––––––––––––––––––––––––––––––––––––––––
Analyzed: Hank Snow / Spanish Fireball
––––––––––––––––––––––––––––––––––––––––

DR Peak RMS Duration Track
––––––––––––––––––––––––––––––––––––––––
DR11 -3.04 dB -16.38 dB 2:18 01-Spanish Fireball
DR11 -1.28 dB -15.99 dB 2:01 02-Cross the Brazos at Waco
DR11 -2.19 dB -15.59 dB 4:36 03-El Paso
DR11 -2.58 dB -15.97 dB 3:07 04-Nuevo Laerdo
DR12 -1.89 dB -16.94 dB 2:07 05-Adios Amigo
DR11 -0.43 dB -14.94 dB 2:31 06-Caribbean
DR12 -3.23 dB -17.62 dB 2:26 07-Maria Elena
DR12 -1.08 dB -15.88 dB 3:44 08-Vaya Con Dios
DR12 -2.06 dB -16.82 dB 2:16 09-Blue Rose of the Rio
DR12 -2.69 dB -16.70 dB 2:24 10-Cuba Rhumba
DR11 -1.48 dB -16.27 dB 2:44 11-Senorita Rosalita
––––––––––––––––––––––––––––––––––––––––

Number of tracks: 11
Official DR value: DR11

Samplerate: 96000 Hz
Channels: 2
Bits per sample: 24
Bitrate: 3160 kbps
Codec: FLAC
================================================================================


All thanks go to the original releaser