Kayhan Kalhor, Aynur, Cemil Qocgiri & Salman Gambarov - Hawniyaz (2016) [Official Digital Download 24/96]

Posted By: SERTiL
Kayhan Kalhor, Aynur, Cemil Qocgiri & Salman Gambarov - Hawniyaz (2016) [Official Digital Download 24/96]

Kayhan Kalhor, Aynur, Cemil Qocgiri & Salman Gambarov - Hawniyaz (2016)
FLAC (tracks) 24-bit/96 kHz | Time - 56:43 minutes | 1.02 GB
Studio Master, Official Digital Download | Artwork: Digital booklet

Rarely have I witnessed such a magical birth as that of the Hawniyaz ensemble in the summer of 2012. Since 2005, the Morgenland Festival in Osnabrück has been devoted to the fascinating musical cultures of the Near and Middle East, from traditional music to classical and the avant-garde, to jazz and rock. With its focus on the ‘East’, which brings with it a whole host of clichés, both positive and negative, associated with the region, the festival has set itself the task of opposing these stereotypes with the most authentic representation possible. In 2012, the festival was opened by two great names: the legendary Kurdish-Iranian kamancheh virtuoso, Kayhan Kalhor, began with a 50-minute improvisation (with Reza Samani on tombak); the second half was provided by Kurdish singer, Aynur, in the company of the Morgenland Chamber Orchestra and Cemîl Qoçgirî on tenbûr. Several other musicians taking part in the festival were also present, including the Azerbaijani jazz pianist Salman Gambarov, who was there rehearsing with the Morgenland All Star Band. Cemîl asked if they could possibly play something together the next day. So the four of them met up again the following morning on one of the festival stages, they were still tired, mornings are certainly not ideal for musicians, but it was the only time that day when they could get together. …

TRACKLIST
1 Delalê 15:54
2 Rewend 11:07
3 Xidire min 10:48
4 Malan Barkir-Bêrîvanê 09:35

Hawniyaz:
Kayhan Kalhor, kamancheh
Aynur, chant
Cemîl Qoçgirî, tenbûr
Salman Gambarov, piano

foobar2000 1.3.7 / Dynamic Range Meter 1.1.1
log date: 2017-09-18 18:02:17

––––––––––––––––––––––––––––––––––––––––
Analyzed: Kayhan Kalhor, Aynur, Cemîl Qoçgirî and Salman Gambarov / Hawniyaz (1)
Kayhan Kalhor, Aynur, Salman Gambarov and Cemîl Qoçgirî / Hawniyaz (2)
Kayhan Kalhor, Salman Gambarov, Aynur and Cemîl Qoçgirî / Hawniyaz (3)
Kayhan Kalhor, Salman Gambarov, Cemîl Qoçgirî and Aynur / Hawniyaz (4-5)
––––––––––––––––––––––––––––––––––––––––

DR Peak RMS Duration Track
––––––––––––––––––––––––––––––––––––––––
DR10 -0.16 dB -14.37 dB 9:36 04-Malan Barkir-Bêrîvanê
DR11 -0.74 dB -16.80 dB 10:49 03-Xidire min
DR12 -0.20 dB -17.05 dB 15:55 01-Delalê
DR11 -0.11 dB -16.37 dB 11:08 02-Rewend
DR12 -0.42 dB -18.23 dB 9:20 05-Ehmedo- Ez reben Im
––––––––––––––––––––––––––––––––––––––––

Number of tracks: 5
Official DR value: DR11

Samplerate: 96000 Hz
Channels: 2
Bits per sample: 24
Bitrate: 2323 kbps
Codec: FLAC
================================================================================


Thanks to the Original customer.