Herbie Hancock - Secrets (1976/2013) [Official Digital Download 24/96]

Posted By: Pisulik
Herbie Hancock - Secrets (1976/2013) [Official Digital Download 24/96]

Herbie Hancock - Secrets (1976/2013)
FLAC (tracks) 24-bit/96 kHz | Time - 47:56 minutes | 974 MB
Studio Master, Official Digital Download | Artwork: Front cover

Secrets (1976) is a Jazz-Funk fusion album by acclaimed keyboard player Herbie Hancock. Following up on his previous album Man-Child, the album again features Paul Jackson on bass, and reedist Bennie Maupin continued to provide most of the solos alongside Hancock. Man-Child had seen the addition of electric guitar to Hancock's sound, and Secrets saw the guitar's place in the arrangements rise to crucial importance throughout. The flamboyant rhythm guitar contributions of top Motown session musician Wah Wah Watson are a particularly notable feature of the album.

Where Man-Child was evenly divided between up-tempo and laid-back tracks, Secrets emphasised the more mellow, softly rounded mood. Even the more up-tempo tracks, "Doin' It" and "Cantaloupe Island", are suffused with a relaxed Caribbean influence, and overall the album tends towards restrained, rolling grooves rather than overtly high-energy Funk. Appropriately, Hancock spent much of his time using the mellow tones of the Rhodes piano, and took advantage of the new polyphonic synthesizers to contribute thick pads, foreshadowing ambient music.

Having long since established his funk credentials, Herbie Hancock continues the direction of Head Hunters and its U.S. successors here, welding himself to the groove on electric keyboards while Bennie Maupin again shines sardonic beams of light on a variety of reeds. In "Doin' It," the most successful track, Hancock makes a more overt bid for the dancefloor, for the tune is basically one long irresistible groove with a very commercial-sounding bridge. Again Hancock chooses to recompose one of his standards; "Cantelope [sic] Island" is almost unrecognizable converted into a sauntering, swaggering thing. A streamlining process has set in the drumming has been simplified, some of the old high-voltage drive has been muted yet there are still enough enjoyable, intelligently musical things happening here to hold a Hancock admirer's attention.

Tracklist:

01. Doin' It
02. People Music
03. Cantelope Island
04. Spider
05. Gentle Thoughts
06. Swamp Rat
07. Sansho Shima

Personnel:

Herbie Hancock - acoustic piano, Rhodes electric piano, electric grand piano, ARP Odyssey, ARP String Ensemble, Hohner D6 Clavinet, Micromoog, Oberheim 4 Voice, Echoplex
Bennie Maupin - soprano sax, tenor sax, saxello, lyricon, bass clarinet
Ray Parker Jr. - guitar, backing vocals on Doin' It
Paul Jackson - bass
James Levi - drums
Kenneth Nash - percussion
Wah Wah Watson - guitar, synthesizer, voice bag, vocals & bass on Doin' It
James Gadson - drums on Doin' It

foobar2000 1.3.7 / Dynamic Range Meter 1.1.1
log date: 2018-01-09 08:34:20

––––––––––––––––––––––––––––––––––––––––
Analyzed: Herbie Hancock / Secrets
––––––––––––––––––––––––––––––––––––––––

DR Peak RMS Duration Track
––––––––––––––––––––––––––––––––––––––––
DR13 -0.21 dB -15.67 dB 8:03 01-Doin' It
DR12 -0.21 dB -15.49 dB 7:09 02-People Music
DR13 -0.21 dB -15.47 dB 7:07 03-Cantelope Island
DR13 -0.21 dB -16.38 dB 7:21 04-Spider
DR12 -0.21 dB -13.95 dB 7:02 05-Gentle Thoughts
DR13 -0.21 dB -15.02 dB 6:24 06-Swamp Rat
DR10 -1.07 dB -15.17 dB 4:50 07-Sansho Shima
––––––––––––––––––––––––––––––––––––––––

Number of tracks: 7
Official DR value: DR12

Samplerate: 96000 Hz
Channels: 2
Bits per sample: 24
Bitrate: 2845 kbps
Codec: FLAC
================================================================================


All thanks go to the original releaser