Herschel Bernardi - Herschel Bernardi Sings Fiddler On The Roof (1966/2016) [Official Digital Download 24/192]

Posted By: Pisulik
Herschel Bernardi - Herschel Bernardi Sings Fiddler On The Roof (1966/2016) [Official Digital Download 24/192]

Herschel Bernardi - Herschel Bernardi Sings Fiddler On The Roof (1966/2016)
FLAC (tracks) 24-bit/192 kHz | Time - 30:23 minutes | 1,11 GB
Studio Master, Official Digital Download | Artwork: Front cover

Since an actor's stage performances disappear after they are made before small audiences, while his or her television and film work is not only disseminated more widely but also preserved, it is easier to remember an actor like Herschel Bernardi for his numerous character parts or even for his voicing of Charlie the Tuna and the Jolly Green Giant on commercials than to appreciate his starring performances in such Broadway musicals as Bajour, Fiddler on the Roof, and Zorba. When he came in as a replacement Tevye in Fiddler on the Roof in November 1965, however, he was well-accepted, giving a more musical and personal performance than the clownish Zero Mostel, who originated the role. Columbia Records had him make an album of the score and even had librettist Joseph Stein write continuity, creating a kind of alternate version of the show. Bernardi also got to sing a couple of songs cut from the stage production, notably the moving "When Messiah Comes." The album made the charts, and after Zorba Bernardi went back into the studio to create a more varied collection of show songs, again with commentary between numbers, Show Stopper…

Tracklist:

01. Tradition
02. Matchmaker, Matchmaker
03. If I Were a Rich Man
04. Sabbath Prayer
05. Miracle of Miracles
06. To Life
07. Sunrise, Sunset
08. When Messiah Comes
09. Anatevka
10. Fiddler on the Roof

foobar2000 1.3.7 / Dynamic Range Meter 1.1.1
log date: 2017-12-04 01:38:19

––––––––––––––––––––––––––––––––––––––––
Analyzed: Herschel Bernardi / Herschel Bernardi Sings Fiddler On The Roof
––––––––––––––––––––––––––––––––––––––––

DR Peak RMS Duration Track
––––––––––––––––––––––––––––––––––––––––
DR10 -1.17 dB -15.42 dB 2:55 01-Tradition
DR10 -2.15 dB -15.31 dB 3:02 02-Matchmaker, Matchmaker
DR11 -1.17 dB -15.38 dB 5:27 03-If I Were a Rich Man
DR11 -2.30 dB -16.59 dB 2:06 04-Sabbath Prayer
DR10 -1.63 dB -13.97 dB 2:30 05-Miracle of Miracles
DR10 -0.76 dB -13.64 dB 2:23 06-To Life
DR10 -1.53 dB -14.30 dB 3:37 07-Sunrise, Sunset
DR11 -2.03 dB -15.21 dB 2:41 08-When Messiah Comes
DR11 -2.01 dB -16.27 dB 2:24 09-Anatevka
DR12 -0.46 dB -16.25 dB 3:16 10-Fiddler on the Roof
––––––––––––––––––––––––––––––––––––––––

Number of tracks: 10
Official DR value: DR11

Samplerate: 192000 Hz
Channels: 2
Bits per sample: 24
Bitrate: 5108 kbps
Codec: FLAC
================================================================================


All thanks go to the original releaser