Ikebe Shakedown - The Way Home (2017) [Official Digital Download]

Posted By: Pisulik
Ikebe Shakedown - The Way Home (2017) [Official Digital Download]

Ikebe Shakedown - The Way Home (2017)
FLAC (tracks) 24-bit/44.1 kHz | Time - 40:16 minutes | 453 MB
Studio Master, Official Digital Download | Artwork: Front cover

Ikebe Shakedown's fourth album pulls from a wide range of influences including soul, afro, psych, and jazz, all coming together in a gritty, cinematic explosion! Over the past eight years, Ikebe Shakedown has cemented a reputation as one of New York City's boldest, most creative instrumental bands. Combining cinematic soul, Afro-funk, deep disco, and an irrepressible groove, Ikebe Shakedown has forged a style all it's own. The Way Home shows how the band's style has continued to evolve, with material that transports listeners beyond their living rooms into dance parties and spaces for introspection. Building on the success that has led to musical features in series such as Eastbound and Down, movies like Our Brand is Crisis, and commercials for brands including Mini Cooper, Vans' Off the Wall, and Surfline, the songs are at once richly familiar and incredibly fresh, paying homage to classic influences while pushing a brand new sound. Defying genre or classification, this album proves Ikebe Shakedown is helping define the next bold and soulful wave in instrumental music.

Tracklist:

01. Supermoon
02. Blue Giant
03. The Next 24
04. She's Knocking
05. Assassin
06. Brushfire
07. Penny The Snitch
08. Out Of The Shadows
09. The Ally
10. Shifting Sands
11. Five For Five
12. The Way Home

foobar2000 1.3.7 / Dynamic Range Meter 1.1.1
log date: 2017-11-18 07:33:58

––––––––––––––––––––––––––––––––––––––––
Analyzed: Ikebe Shakedown / The Way Home
––––––––––––––––––––––––––––––––––––––––

DR Peak RMS Duration Track
––––––––––––––––––––––––––––––––––––––––
DR8 -0.23 dB -9.03 dB 3:27 01-Supermoon
DR8 -0.05 dB -9.70 dB 3:33 02-Blue Giant
DR10 -0.27 dB -10.66 dB 3:48 03-The Next 24
DR8 -0.03 dB -10.49 dB 3:14 04-She's Knocking
DR8 -0.16 dB -10.09 dB 3:28 05-Assassin
DR9 -0.01 dB -10.92 dB 4:21 06-Brushfire
DR9 -0.15 dB -10.45 dB 3:05 07-Penny The Snitch
DR9 -0.21 dB -11.23 dB 3:57 08-Out Of The Shadows
DR9 -0.25 dB -11.29 dB 3:09 09-The Ally
DR9 -0.26 dB -10.88 dB 3:24 10-Shifting Sands
DR9 -0.23 dB -10.34 dB 3:25 11-Five For Five
DR8 -0.34 dB -10.20 dB 1:25 12-The Way Home
––––––––––––––––––––––––––––––––––––––––

Number of tracks: 12
Official DR value: DR9

Samplerate: 44100 Hz
Channels: 2
Bits per sample: 24
Bitrate: 1545 kbps
Codec: FLAC
================================================================================


All thanks go to the original releaser