Jacques Brel - Au Printemps (1958/2013) [Official Digital Download 24/96]

Posted By: Pisulik
Jacques Brel - Au Printemps (1958/2013) [Official Digital Download 24/96]

Jacques Brel - Au Printemps (1958/2013)
FLAC (tracks) 24-bit/96 kHz | Time - 45:42 minutes | 713 MB
Studio Master, Official Digital Download | Artwork: Front cover

The third album from Jacques Brel, Au printemps was released in 1958 following a period of fame and success that Brel enjoyed with his previous album. Considered understated and underrated by critics, this version contains three songs not included on the original release.

Tracklist:

01 Demain l'on se marie (La chanson des fiances) 02:35
02 Au printemps 02:42
03 Je ne sais pas 03:09
04 Le colonel 03:14
05 Dors ma mie 03:45
06 La lumiere jaillira 02:58
07 Dites si c'etait vrai 01:34
08 L'homme dans la cite 02:24
09 Litanies pour un retour 02:09
10 Voici 02:43
11 Voir 02:21
12 L'aventure 02:39
13 Dites si c'etait vrai 01:30

Personnel:

Jacques Brel – composer, vocals
André Popp – conductor (tracks 1, 4, 7, 10, 13)
François Rauber – conductor (tracks 2–3, 8–9, 11–12)

foobar2000 1.3.7 / Dynamic Range Meter 1.1.1
log date: 2017-10-16 08:37:37

––––––––––––––––––––––––––––––––––––––––
Analyzed: Jacques Brel / Au Printemps
––––––––––––––––––––––––––––––––––––––––

DR Peak RMS Duration Track
––––––––––––––––––––––––––––––––––––––––
DR7 0.00 dB -9.88 dB 2:35 01-Demain l'on se marie (La chanson des fiancés)
DR7 0.00 dB -8.22 dB 2:42 02-Au printemps
DR7 0.00 dB -8.88 dB 3:09 03-Je ne sais pas
DR6 0.00 dB -7.86 dB 3:14 04-Le colonel
DR5 0.00 dB -8.25 dB 3:45 05-Dors ma mie
DR6 0.00 dB -8.18 dB 2:58 06-La lumière jaillira
DR5 0.00 dB -6.60 dB 1:34 07-Dites si c'etait vrai
DR6 0.00 dB -8.43 dB 2:24 08-L'homme dans la cité
DR5 0.00 dB -8.21 dB 2:09 09-Litanies pour un retour
DR7 0.00 dB -9.38 dB 2:43 10-Voici
DR7 0.00 dB -9.35 dB 2:21 11-Voir
DR7 0.00 dB -8.44 dB 2:39 12-L'aventure
DR11 0.00 dB -13.81 dB 1:30 13-Dites, si c'était vrai
––––––––––––––––––––––––––––––––––––––––

Number of tracks: 13
Official DR value: DR7

Samplerate: 96000 Hz
Channels: 2
Bits per sample: 24
Bitrate: 2655 kbps
Codec: FLAC
================================================================================


All thanks go to the original releaser