Jacques Brel - Brel 67 (1967/2013) [Official Digital Download 24/96]

Posted By: Pisulik
Jacques Brel - Brel 67 (1967/2013) [Official Digital Download 24/96]

Jacques Brel - Brel 67 (1967/2013)
FLAC (tracks) 24-bit/96 kHz | Time - 39:42 minutes | 889 MB
Studio Master, Official Digital Download | Artwork: Front cover

Jacques Brel's ninth album, released in 1967, contains some of the lesser-known material from the later stages of his recording career. This would turn out to be one of Brel's last studio recordings for a decade as he concentrated his talents on acting in films and on stage. This release includes Les Moutons not on the original album.

Tracklist:

01 Mon Enfance
02 Le Cheval
03 Mon Père Disait
04 La… La… La…
05 Les Cœurs Tendres
06 Fils De…
07 Les Bonbons 67
08 La Chanson Des Vieux Amants
09 À Jeun
10 Le Gaz
11 Les moutons

foobar2000 1.3.7 / Dynamic Range Meter 1.1.1
log date: 2017-10-16 23:24:56

––––––––––––––––––––––––––––––––––––––––
Analyzed: Jacques Brel / Jacques Brel 67
––––––––––––––––––––––––––––––––––––––––

DR Peak RMS Duration Track
––––––––––––––––––––––––––––––––––––––––
DR8 0.00 dB -12.03 dB 5:41 01-Mon enfance
DR7 0.00 dB -8.48 dB 3:10 02-Le cheval
DR8 0.00 dB -11.86 dB 3:07 03-Mon père disait
DR9 0.00 dB -11.14 dB 4:10 04-La… la… la…
DR9 0.00 dB -10.42 dB 3:31 05-Les cœurs tendres
DR9 0.00 dB -12.18 dB 3:51 06-Fils de…
DR9 0.00 dB -12.72 dB 2:59 07-Les bonbons 67
DR8 0.00 dB -10.43 dB 4:31 08-La chanson des vieux amants
DR9 0.00 dB -11.05 dB 3:36 09-À jeun
DR7 0.00 dB -10.43 dB 2:55 10-Le gaz
DR9 0.00 dB -10.52 dB 2:19 11-Les moutons
––––––––––––––––––––––––––––––––––––––––

Number of tracks: 11
Official DR value: DR8

Samplerate: 96000 Hz
Channels: 2
Bits per sample: 24
Bitrate: 2950 kbps
Codec: FLAC
================================================================================


All thanks go to the original releaser