Jacques Brel - Jacques Brel Au Casino De Knokke 23 Juillet 1963 - Récital Et Entretien (2014) [Official Digital Download]

Posted By: Pisulik
Jacques Brel - Jacques Brel Au Casino De Knokke 23 Juillet 1963 - Récital Et Entretien (2014) [Official Digital Download]

Jacques Brel - Jacques Brel Au Casino De Knokke 23 Juillet 1963 - Récital Et Entretien (2014)
FLAC (tracks) 24-bit/44.1 kHz | Time - 76:07 minutes | 795 MB
Studio Master, Official Digital Download | Artwork: Front cover

Jacques Brel recorded this live album, released posthumously, at a celebrated show at the Knokke Casino in Flanders, Belgium in July 1963. Perhaps best known as the concert where Brel introduced the classic Mathilde, which wouldn't appear on a studio album for another three years, the historic performance features many of Brel's best known songs from the first half of his career. This edition includes a 42 minute interview with Brel, conducted in 1971.

Tracklist:

01. Bruxelles (Live, Belgique 1963)
02. Rosa (Live, Belgique 1963)
03. La fanette (Live, Belgique 1963)
04. Les fenetres (Live, Belgique 1963)
05. Quand on n'a que l'amour (Live, Belgique 1963)
06. Mathilde (Live, Belgique 1963)
07. Les vieux (Live, Belgique 1963)
08. Le plat pays (Live, Belgique 1963)
09. Le moribond (Live, Belgique 1963)
10. Les bigotes (Live, Belgique 1963)
11. Madeleine (Live, Belgique 1963)
12. Brel parle (Interview 1971 à Knokke) (Live, Belgique 1963)

foobar2000 1.3.7 / Dynamic Range Meter 1.1.1
log date: 2018-01-22 06:36:24

––––––––––––––––––––––––––––––––––––––––
Analyzed: Jacques Brel / Jacques Brel Au Casino De Knokke 23 Juillet 1963 - Récital Et Entretien
––––––––––––––––––––––––––––––––––––––––

DR Peak RMS Duration Track
––––––––––––––––––––––––––––––––––––––––
DR9 0.00 dB -10.96 dB 2:48 01-Bruxelles (Live, Belgique 1963)
DR10 -0.21 dB -12.58 dB 2:28 02-Rosa (Live, Belgique 1963)
DR10 -1.00 dB -13.53 dB 3:33 03-La fanette (Live, Belgique 1963)
DR9 -0.36 dB -10.99 dB 2:45 04-Les fenetres (Live, Belgique 1963)
DR8 0.00 dB -10.19 dB 2:27 05-Quand on n'a que l'amour (Live, Belgique 1963)
DR10 -0.06 dB -12.66 dB 3:18 06-Mathilde (Live, Belgique 1963)
DR11 -0.05 dB -13.53 dB 4:34 07-Les vieux (Live, Belgique 1963)
DR9 -2.15 dB -14.86 dB 2:38 08-Le plat pays (Live, Belgique 1963)
DR10 -0.07 dB -11.87 dB 2:51 09-Le moribond (Live, Belgique 1963)
DR11 -0.03 dB -12.88 dB 2:49 10-Les bigotes (Live, Belgique 1963)
DR10 -0.08 dB -12.82 dB 3:52 11-Madeleine (Live, Belgique 1963)
DR15 0.00 dB -17.89 dB 42:04 12-Brel parle (Interview 1971 à Knokke) (Live, Belgique 1963)
––––––––––––––––––––––––––––––––––––––––

Number of tracks: 12
Official DR value: DR10

Samplerate: 44100 Hz
Channels: 2
Bits per sample: 24
Bitrate: 1414 kbps
Codec: FLAC
================================================================================


All thanks go to the original releaser