Jean-Claude Pennetier - Fauré: Intégrale de l’oeuvre pour piano, Vol 3 (2015) [Official Digital Download 24/96]

Posted By: SERTiL
Jean-Claude Pennetier - Fauré: Intégrale de l’oeuvre pour piano, Vol 3 (2015) [Official Digital Download 24/96]

Jean-Claude Pennetier - Fauré: Intégrale de l’oeuvre pour piano, Vol 3 (2015)
FLAC (tracks) 24-bit/96 kHz | Time - 66:04 minutes | 806 MB
Studio Master, Official Digital Download | Artwork: Digital Booklet

A taste for clarity of thought, sobriety and purity of form, sincerity, disdain for grandiose effects’: that was how Gabriel Fauré, the creator of a quintessentially French art, summed up his artistic and spiritual creed. In his output for piano, of which he was particularly fond, he followed the trail blazed by Chopin, fearlessly using the boldest strokes of harmony to colour his music with a highly individual charm.

Tracklist:

Gabriel Fauré (1845-1924)

01. I. Capriccio en Mi Bémol Majeur
02. II. Fantaisie en La Bémol Majeur
03. III. Fugue en La Mineur
04. IV. Adagietto en Mi Mineur
05. V. Improvisation en Ut Dièse Mineur
06. VI. Fugue en Mi Mineur
07. VII. Allégresse en Ut Majeur
08. VIII. Nocturne En Ré Bémol Majeur
09. Thème et Variations, Op. 73
10. Barcarolle No. 4 en La Bémol Majeur, Op. 44
11. Barcarolle No. 5 en Fa Dièse Mineur, Op. 66
12. Barcarolle No. 6 en Mi Bémol Majeur, Op. 70
13. Nocturne No. 6 en Ré Bémol Majeur, Op. 63
14. Nocturne No. 7 en Do Dièse Mineur, Op. 74

Personnel:
Jean-Claude Pennetier, piano

foobar2000 1.3.7 / Dynamic Range Meter 1.1.1
log date: 2018-03-14 15:57:21

––––––––––––––––––––––––––––––––––––––––
Analyzed: Jean-Claude Pennetier / Fauré: Intégrale de l’oeuvre pour piano, Vol 3
––––––––––––––––––––––––––––––––––––––––

DR Peak RMS Duration Track
––––––––––––––––––––––––––––––––––––––––
DR12 -9.26 dB -27.09 dB 2:06 01-I. Capriccio en Mi Bémol Majeur
DR13 -5.39 dB -25.34 dB 1:59 02-II. Fantaisie en La Bémol Majeur
DR14 -6.73 dB -26.61 dB 2:46 03-III. Fugue en La Mineur
DR13 -2.20 dB -23.25 dB 2:56 04-IV. Adagietto en Mi Mineur
DR12 -9.78 dB -27.78 dB 1:54 05-V. Improvisation en Ut Dièse Mineur
DR12 -6.37 dB -22.95 dB 2:34 06-VI. Fugue en Mi Mineur
DR11 -4.74 dB -21.18 dB 1:27 07-VII. Allégresse en Ut Majeur
DR13 -5.72 dB -24.13 dB 2:25 08-VIII. Nocturne En Ré Bémol Majeur
DR15 -1.82 dB -23.87 dB 15:25 09-Thème et Variations, Op. 73
DR13 -4.96 dB -26.03 dB 4:12 10-Barcarolle No. 4 en La Bémol Majeur, Op. 44
DR15 -0.35 dB -21.95 dB 6:58 11-Barcarolle No. 5 en Fa Dièse Mineur, Op. 66
DR13 -6.01 dB -24.40 dB 3:59 12-Barcarolle No. 6 en Mi Bémol Majeur, Op. 70
DR15 -2.31 dB -24.11 dB 8:36 13-Nocturne No. 6 en Ré Bémol Majeur, Op. 63
DR15 -1.53 dB -22.81 dB 8:54 14-Nocturne No. 7 en Do Dièse Mineur, Op. 74
––––––––––––––––––––––––––––––––––––––––

Number of tracks: 14
Official DR value: DR13

Samplerate: 96000 Hz
Channels: 2
Bits per sample: 24
Bitrate: 1707 kbps
Codec: FLAC
================================================================================


Thanks to the Original customer.