Jean Claude Pennetier - Mozart: Piano Concertos No. 21 & No. 24 (2017) [Official Digital Download]

Posted By: SERTiL
Jean Claude Pennetier - Mozart: Piano Concertos No. 21 & No. 24 (2017) [Official Digital Download]

Jean Claude Pennetier - Mozart: Piano Concertos No. 21 & No. 24 (2017)
FLAC (tracks) 24-bit/48 kHz | Time - 57:52 minutes | 549 MB
Studio Master, Official Digital Download | Artwork: Digital booklet

With these two piano concertos, Jean-Claude Pennetier establishes the authenticity of Mozart’s gift. The tenderness and fire of No. 21 mirror the anguish and inner intensity of No. 24. The two pieces are close to perfect and prove, as Mauriac put it, that: “As long as men inhabit the earth, just a few bars of Mozart can remind us of the paradise we lost, a paradise that may still exist as long as we can hear the echoes of its laughter and tears in such divine music.”

TRACKLIST

Ludwig van Beethoven (1770-1827)

1 Piano Concerto No. 21 in C Major, K. 467: I. Allegro 15:13
2 Piano Concerto No. 21 in C Major, K. 467: II. Andante 06:37
3 Piano Concerto No. 21 in C Major, K. 467: III. Allegro vivace assai 06:57
4 Piano Concerto No. 24 in C Minor K. 491: I. Allegro 13:24
5 Piano Concerto No. 24 in C Minor K. 491: II. Larghetto 06:46
6 Piano Concerto No. 24 in C Minor K. 491: III. Allegretto 08:55

PERSONNEL
Jean-Claude Pennetier, piano
Orchestre Philharmonique de Radio France
Christoph Poppen, conductor

foobar2000 1.3.7 / Dynamic Range Meter 1.1.1
log date: 2017-10-07 16:03:14

––––––––––––––––––––––––––––––––––––––––
Analyzed: Jean Claude Pennetier, Orchestre philharmonique de Radio France, Christoph Poppen / Mozart: Piano Concertos No. 21 & No. 24
––––––––––––––––––––––––––––––––––––––––

DR Peak RMS Duration Track
––––––––––––––––––––––––––––––––––––––––
DR14 -0.59 dB -19.46 dB 15:13 01-Piano Concerto No. 21 in C Major, K. 467: I. Allegro
DR13 -5.46 dB -23.78 dB 6:37 02-Piano Concerto No. 21 in C Major, K. 467: II. Andante
DR15 0.00 dB -20.30 dB 6:58 03-Piano Concerto No. 21 in C Major, K. 467: III. Allegro vivace assai
DR13 -1.05 dB -19.16 dB 13:24 04-Piano Concerto No. 24 in C Minor K. 491: I. Allegro
DR14 -5.46 dB -24.91 dB 6:46 05-Piano Concerto No. 24 in C Minor K. 491: II. Larghetto
DR14 0.00 dB -20.25 dB 8:56 06-Piano Concerto No. 24 in C Minor K. 491: III. Allegretto
––––––––––––––––––––––––––––––––––––––––

Number of tracks: 6
Official DR value: DR14

Samplerate: 48000 Hz
Channels: 2
Bits per sample: 24
Bitrate: 1322 kbps
Codec: FLAC
================================================================================


Thanks to the Original customer.