Subcategories

Joe Farrell - Moon Germs (1973/2016) [Official Digital Download 24/192]

Posted By: Pisulik
Joe Farrell - Moon Germs (1973/2016) [Official Digital Download 24/192]

Joe Farrell - Moon Germs (1973/2016)
FLAC (tracks) 24-bit/192 kHz | Time - 37:33 minutes | 1,57 GB
Studio Master, Official Digital Download | Artwork: Front cover

Recorded in 1972 and released in 1973 with Herbie Hancock, Stanley Clarke, and Jack DeJohnette, Joe Farrell's Moon Germs was a foray into the electric side of jazz. On the opener, "Great George," Farrell leads off with the hint of a melody before careening into legato streams of thought along striated intervallic paths. DeJohnette is like a machine gun, quadruple-timing the band as Clarke moves against the grain in a series of fours and eights, and Hancock's attempts to keep the entire thing anchored are almost for naught. On the title track there is more of a funk backdrop, but the complex, angular runs and insane harmonic reaches Farrell attempts on his soprano, crack, falter, and ultimately turn into something else; the sheer busy-ness of the track is dazzling. "Bass Folk Song" by Clarke, is the only thing on the record that actively engages melody rather than harmonic structures. Farrell uses his flute and Hancock strides into the same kind of territory he explored with Miles Davis, chopping up chordal phrases into single lines and feeding them wholesale to the running pair of frontmen–in this case Clarke and Farrell. DeJohnette uses a Latin backdrop to hang his drumming on and pursues a circular, hypnotic groove on the cymbals and toms. It's a gorgeous piece of music and utilizes an aspect of space within the melodic frame that the rest of these firebrand tunes do not. This is sci-fi Farrell at his creative best.

Tracklist:

01. Great Gorge
02. Moon Germs
03. Times Lie
04. Bass Folk Song

Personnel:

Joe Farrell – soprano saxophone, flute
Herbie Hancock – electric piano
Stanley Clarke – bass
Jack DeJohnette - drums

foobar2000 1.3.7 / Dynamic Range Meter 1.1.1
log date: 2017-10-16 09:06:56

––––––––––––––––––––––––––––––––––––––––
Analyzed: Joe Farrell / Moon Germs
––––––––––––––––––––––––––––––––––––––––

DR Peak RMS Duration Track
––––––––––––––––––––––––––––––––––––––––
DR11 -0.01 dB -14.02 dB 11:47 01-Great Gorge
DR11 -0.01 dB -14.90 dB 7:27 02-Moon Germs
DR10 -0.01 dB -12.97 dB 8:31 03-Time's Lie
DR11 -0.01 dB -13.87 dB 9:47 04-Bass Folk Song
––––––––––––––––––––––––––––––––––––––––

Number of tracks: 4
Official DR value: DR11

Samplerate: 192000 Hz
Channels: 2
Bits per sample: 24
Bitrate: 5945 kbps
Codec: FLAC
================================================================================


All thanks go to the original releaser