Subcategories

John-Edward Kelly, Tapiola Sinfonietta - Aho: Chamber Symphonies Nos 1-3 (2012) [Official Digital Download 24/44.1]

Posted By: SERTiL
John-Edward Kelly, Tapiola Sinfonietta - Aho: Chamber Symphonies Nos 1-3 (2012) [Official Digital Download 24/44.1]

John-Edward Kelly, Tapiola Sinfonietta - Aho: Chamber Symphonies Nos 1-3 (2012)
FLAC (tracks) 24-bit/44.1 kHz | Time - 56:38 minutes | 506 MB
Studio Master, Official Digital Download | Artwork: Digital booklet

The Tapiola Sinfonietta here performs Kalevi Ahos three chamber symphonies: three works that stretch the expressive capabilities of a string orchestra, and are thus highly demanding for the players. The solo alto saxophone part in Chamber Symphony No.3 was written for the soloist John-Edward Kelly who appears here. Aho describes the piece as a hybrid of chamber symphony and saxophone concerto. The Tapiola Sinfonietta has earned high praise from reviewers around the world for its recordings ranging from Arvo Pärt to Saint-Saëns and von Weber. The conductors Jean-Jacques Kantorow and Stefan Asbury are both close collaborators with the orchestra.

The Tapiola Sinfonietta's performances are splendid, crisp and lithe in Nos. 1 and 2 under Asbury's taut direction. Kantorow elicits more expansive but no less electric playing in No. 3 where they partner Kelly (the original soloist on dazzling form here) as equals. BIS's SACD recording is first-rate, the acoustic of the Tapiola Concert Hall affording these works the finest possible environment in which to be heard at their best. –Guy Rickards, Gramophone

Recorded sound is absolutely spectacular, capturing every detail of these superb performances. The Tapiola Sinfonietta produces a vigorous, fresh ensemble sound for both conductors, and it sounds as though ever member of the orchestra is in fact a world-class soloist. Kelly clearly lives the third Chamber symphony; his technical capacity is beyond dispute and he has the gift of making his instrument sound like the oriental siren that seems to have influenced the composer. Recommended unreservedly. –– IRR OUTSTANDING –Ivan Moody, International Record Review

The tightly-argued Second… places exceptionally high demands on the players. As in all three Symphonies, spotlighted players and the ensemble meet the challenged with skill and conviction. And the Third, too, is as full of passion as of technical fireworks and structural fascination. –– 5*/5* –Barry Witherden, BBC Music Magazine

TRACKLIST

1 Chamber Symphony No. 1 13:13

Chamber Symphony No. 2
2 I. — - 7:41
3 II. — 3:29
4 III. Furioso 4:55

Chamber Symphony No. 3
5 I. … jaatyivat umpeen levottomat vedet (… frozen are the restless waters) 7:13
6 II. … ah, olen kuullut villihanhien huudot (… oh, I have heard the wild geese calling) - 5:52
7 III. … pitkat yot sulavat (… the long nights are melting) 7:25
8 IV. … soutaa avomerta pain tulipunainen laiva (… towards the open sea rows a fire-red boat) 5:46

foobar2000 1.3.7 / Замер динамического диапазона (DR) 1.1.1
Дата отчёта: 2017-03-04 12:42:16

––––––––––––––––––––––––––––––––––––––––
Анализ: John-Edward Kelly, Tapiola Sinfonietta, Jean-Jacques Kantorow / Kalevi Aho: Chamber Symphonies Nos 1–3 (1-4)
Tapiola Sinfonietta, Stefan Asbury / Kalevi Aho: Chamber Symphonies Nos 1–3 (5-8)
––––––––––––––––––––––––––––––––––––––––

DR Пики RMS Продолжительность трека
––––––––––––––––––––––––––––––––––––––––
DR15 -0.01 дБ -25.37 дБ 7:16 05-Chamber Symphony No.3 for alto saxophone and string orchestra - I. …jäätyivät umpeen levottomat vedet (…frozen are the restless waters)
DR13 -2.85 дБ -21.50 дБ 5:51 06-Chamber Symphony No.3 for alto saxophone and string orchestra - II. …ah, olen kuullut villihanhien huudot (…oh, I have heard the wild geese calling)
DR13 -1.84 дБ -20.58 дБ 7:26 07-Chamber Symphony No.3 for alto saxophone and string orchestra - III. …pitkät yöt sulavat (…the long nights are melting)
DR13 -7.18 дБ -25.37 дБ 6:17 08-Chamber Symphony No.3 for alto saxophone and string orchestra - IV. …soutaa avomerta päin tulipunainen laiva (…towards the open sea rows a fire-red boat)
DR15 -3.77 дБ -25.01 дБ 13:29 01-Chamber Symphony No.1 - Andante – Prestissimo – Poco meno mosso – Presto – Tempo I – Presto – Andante – Tempo di Valse – Tempo I – Allegro –Tempo I – Poco meno mosso
DR14 -4.02 дБ -23.55 дБ 7:43 02-Chamber Symphony No.2 - [no tempo marking]
DR17 -3.81 дБ -27.52 дБ 3:30 03-Chamber Symphony No.2 - [Letter F]
DR14 -2.80 дБ -22.41 дБ 5:09 04-Chamber Symphony No.2 - Furioso
––––––––––––––––––––––––––––––––––––––––

Количество треков: 8
Реальные значения DR: DR14

Частота: 44100 Гц
Каналов: 2
Разрядность: 24
Битрейт: 1257 кбит/с
Кодек: FLAC
================================================================================


Thanks to the Original customer.