John Eliot Gardiner - Bach: St Matthew Passion BWV 244 (2017) [Official Digital Download 24/96]

Posted By: SERTiL
John Eliot Gardiner - Bach: St Matthew Passion BWV 244 (2017) [Official Digital Download 24/96]

John Eliot Gardiner - Bach: St Matthew Passion BWV 244 (2017)
FLAC (tracks) 24-bit/96 kHz | Time - 160:28 minutes | 2.64 GB
Studio Master, Official Digital Download | Artwork: Digital booklet

A new live recording of Bach’s St Matthew Passion (Matthäuspassion BWV 244), recorded in Pisa Cathedral during the Anima Mundi Festival as part of the Monteverdi Choir and Orchestra’s 2016 tour.

As well as the full sung texts, the booklet includes both a programme note by Sir John Eliot Gardiner as well as his tour notes: written both before and during their 6-month international tour – which began in Valencia in March and concluded with this performance in Pisa on 22 September – these include diary entries and notes given during rehearsals or sent in the aftermath of concerts to the performers (who were performing from memory).

All notes and texts are included in English, German and French translations.

TRACKLIST
1. Part I: Kommt, ihr Töchter, helft mir klagen (Chorus)
2. Part I: Recitative: Da Jesus diese Rede vollendet hatte (Evangelist, Jesus)
3. Part I: Chorale: Herzliebster Jesu, was hast du verbrochen (Chorus)
4. Part I: Recitative: Da versammleten sich die Hohenpriester (Evangelist, Chorus, Jesus)
5. Part I: Recitative: Du lieber Heiland du (Alto)
6. Part I: Aria: Buß und Reu (Alto)
7. Part I: Recitative: Da ging hin der Zwölfen einer (Evangelist, Judas)
8. Part I: Blute nur, du liebes Herz (Soprano)
9. Part I: Recitative and Chorus: Aber am ersten Tage der süßen Brot (Evangelist, Chorus, Jesus)
10. Part I: Chorale: Ich bin's, ich sollte büßen (Chorus)
11. Part I: Recitative: Er antwortete und sprach (Evangelist, Jesus, Judas)
12. Part I: Recitative: Wiewohl mein Herz in Tränen schwimmt (Soprano)
13. Part I: Aria: Ich will dir mein Herze schenken (Soprano)
14. Part I: Recitative: Und da sie den Lobgesang gesprochen hatten (Evangelist, Jesus)
15. Part I: Chorale: Erkenne mich, mein Hüter (Chorus)
16. Part I: Recitative: Petrus aber antwortete (Petrus, Evangelist, Jesus)
17. Part I: Chorale: Ich will hier bei dir stehen (Chorus)
18. Part I: Recitative: Da kam Jesus mit ihnen zu einem Hofe (Evangelist, Jesus)
19. Part I: Recitative and Chorale: O Schmerz, hier zittert das gequälte Herz (Tenor, Chorus)
20. Part I: Aria and Chorus: Ich will bei meinem Jesu wachen (Tenor, Chorus)
21. Part I: Recitative: Und ging hin ein wenig (Evangelist, Jesus)
22. Part I: Recitative: Der Heiland fällt vor seinem Vater nieder (Bass)
23. Part I: Aria: Gerne will ich mich bequemen (Bass)
24. Part I: Recitative: Und er kam zu seinen Jüngern (Evangelist, Jesus)
25. Part I: Chorale: Was mein Gott will, das g'scheh allzeit (Chorus)
26. Part I: Recitative: Und er kam und fand sie aber schlafend (Evangelist, Jesus, Judas)
27. Part I: Aria and Chorus: So ist mein Jesus nun gefangen (Alto, Soprano, Chorus)
28. Part I: Recitative: Und siehe, einer aus denen (Evangelist, Jesus)
29. Part I: Chorale: O Mensch, bewein dein Sünde groß (Chorus)
30. Part II: Aria and Chorus: Ach! Nun ist mein Jesus hin (Alto, Chorus)
31..Part II: Recitative: Die aber Jesum gegriffen hatten (Evangelist)
32. Part II: Chorale: Mir hat die Welt trüglich gericht' (Chorus)
33. Part II: Recitative: Und wiewohl viel falsche Zeugen herzutraten (Evangelist, Testis, Pontifex)
34. Part II: Recitative: Mein Jesus schweigt zu falschen Lügen stille (Tenor)
35. Part II: Aria: Geduld! (Tenor)
36. Part II: Recitative and Chorus: Und der Hohepriester antwortete (Evangelist, Pontifex, Jesus, Chorus)
37. Part II: Chorale: Wer hat dich so geschlagen (Chorus)
38. Part II: Recitative and Chorus: Petrus aber saß draußen im Palast (Evangelist, Petrus, Ancilla, Chorus)
39. Part II: Aria: Erbarme dich (Alto)
40. Part II: Chorale: Bin ich gleich von dir gewichen (Chorus)
41. Part II: Recitative and Chorus: Des Morgens aber hielten alle Hohepriester (Evangelist, Judas, Chorus, Pontifices)
42. Part II: Aria: Gebt mir meinen Jesum wieder (Bass)
43. Part II: Recitative: Sie hielten aber einen Rat (Evangelist, Pilatus, Jesus)
44. Part II: Chorale: Befiehl du deine Wege (Chorus)
45. Part II: Recitative and Chorus: Auf das Fest aber hatte der Landpfleger (Evangelist, Pilatus, Uxor Pilati, Chorus)
46. Part II: Chorale: Wie wunderbarlich ist doch diese Strafe (Chorus)
47. Part II: Recitative: Der Landpfleger sagte (Evangelist, Pilatus)
48. Part II: Recitative: Er hat uns allen wohlgetan (Soprano)
49. Part II: Aria: Aus Liebe will mein Heiland sterben (Soprano)
50. Part II: Recitative and Chorus: Sie schrieen aber noch mehr (Evangelist, Chorus, Pilatus)
51. Part II: Recitative: Erbarm es Gott (Alto)
52. Part II: Aria: Können Tränen meiner Wangen (Alto)
53. Part II: Recitative and Chorus: Da nahmen die Kriegsknechte (Evangelist, Chorus)
54. Part II: Chorale: O Haupt voll Blut und Wunden (Chorus)
55. Part II: Recitative: Und da sie ihn verspottet hatten (Evangelist)
56. Part II: Recitative: Ja! freilich will in uns das Fleisch und Blut (bass)
57. Part II: Aria: Komm, süßes Kreuz (Bass)
58. Part II: Recitative and Chorus: Und da sie an die Stätte kamen mit (Evangelist, Chorus)
59. Part II: Recitative: Ach Golgatha, unsel'ges Golgatha (Alto)
60. Part II: Aria and Chorus: Sehet, Jesus hat die Hand (Alto, Chorus)
61. Part II: Recitative and Chorus: Und von der sechsten Stunde an (Evangelist, Jesus, Chorus)
62. Part II: Chorale: Wenn ich einmal soll scheiden (Chorus)
63. Part II: Recitative and Chorus: Und siehe da, der Vorhang im Tempel zerriß (Evangelist, Chorus)
64. Part II: Recitative: Am Abend, da es kühle war (Bass)
65. Part II: Aria: Mache dich, mein Herze, rein (Bass)
66. Part II: Recitative and Chorus: Und Joseph nahm den Leib (Evangelist, Chorus, Pilatus)
67. Part II: Recitative and Chorus: Nun ist der Herr zur Ruh gebracht (Bass, Tenor, Alto, Soprano, Chorus)
68. Part II: Chorale: Wir setzen uns mit Tränen nieder (Chorus)

foobar2000 1.3.7 / Dynamic Range Meter 1.1.1
log date: 2017-04-02 21:14:14

––––––––––––––––––––––––––––––––––––––––
Analyzed: James Gilchrist, Stephan Loges, Monteverdi Choir, English Baroque Soloists, John Eliot Gardiner / Bach, J.S.: St. Matthew Passion, BWV 244
––––––––––––––––––––––––––––––––––––––––

DR Peak RMS Duration Track
––––––––––––––––––––––––––––––––––––––––
DR14 -1.48 dB -20.29 dB 6:53 01-St. Matthew Passion, BWV 244, Pt. 1: Kommt, ihr Töchter, helft mir klagen (Chorus)
DR12 -10.24 dB -29.64 dB 0:36 02-St. Matthew Passion, BWV 244, Pt. 1: Recitative: Da Jesus diese Rede vollendet hatte (Evangelist, Jesus)
DR11 -4.75 dB -22.72 dB 0:41 03-St. Matthew Passion, BWV 244, Pt. 1: Chorale: Herzliebster Jesu, was hast du verbrochen (Chorus)
DR15 -2.54 dB -25.76 dB 2:59 04-St. Matthew Passion, BWV 244, Pt. 1: Recitative: Da versammleten sich die Hohenpriester (Evangelist, Chorus, Jesus)
DR11 -9.73 dB -28.54 dB 0:51 05-St. Matthew Passion, BWV 244, Pt. 1: Recitative: Du lieber Heiland du (Alto)
DR15 -6.87 dB -28.03 dB 3:55 06-St. Matthew Passion, BWV 244, Pt. 1: Aria: Buß und Reu (Alto)
DR13 -10.83 dB -32.56 dB 0:39 07-St. Matthew Passion, BWV 244, Pt. 1: Recitative: Da ging hin der Zwölfen einer (Evangelist, Judas)
DR14 -6.03 dB -25.40 dB 4:26 08-St. Matthew Passion, BWV 244, Pt. 1: Blute nur, du liebes Herz (Soprano)
DR14 -9.71 dB -29.19 dB 2:04 09-St. Matthew Passion, BWV 244, Pt. 1: Recitative and Chorus: Aber am ersten Tage der süßen Brot (Evangelist, Chorus, Jesus)
DR10 -5.28 dB -20.01 dB 0:44 10-St. Matthew Passion, BWV 244, Pt. 1: Chorale: Ich bin's, ich sollte büßen (Chorus)
DR15 -8.46 dB -27.86 dB 2:44 11-St. Matthew Passion, BWV 244, Pt. 1: Recitative: Er antwortete und sprach (Evangelist, Jesus, Judas)
DR14 -6.59 dB -25.91 dB 1:18 12-St. Matthew Passion, BWV 244, Pt. 1: Recitative: Wiewohl mein Herz in Tränen schwimmt (Soprano)
DR14 -7.47 dB -26.75 dB 3:14 13-St. Matthew Passion, BWV 244, Pt. 1: Aria: Ich will dir mein Herze schenken (Soprano)
DR14 -4.74 dB -29.05 dB 0:58 14-St. Matthew Passion, BWV 244, Pt. 1: Recitative: Und da sie den Lobgesang gesprochen hatten (Evangelist, Jesus)
DR13 -6.46 dB -23.81 dB 0:59 15-St. Matthew Passion, BWV 244, Pt. 1: Chorale: Erkenne mich, mein Hüter (Chorus)
DR15 -8.84 dB -29.20 dB 0:55 16-St. Matthew Passion, BWV 244, Pt. 1: Recitative: Petrus aber antwortete (Petrus, Evangelist, Jesus)
DR12 -9.01 dB -24.18 dB 1:02 17-St. Matthew Passion, BWV 244, Pt. 1: Chorale: Ich will hier bei dir stehen (Chorus)
DR14 -10.24 dB -30.32 dB 1:29 18-St. Matthew Passion, BWV 244, Pt. 1: Recitative: Da kam Jesus mit ihnen zu einem Hofe (Evangelist, Jesus)
DR15 -8.63 dB -27.97 dB 1:58 19-St. Matthew Passion, BWV 244, Pt. 1: Recitative and Chorale: O Schmerz, hier zittert das gequälte Herz (Tenor, Chorus)
DR14 -3.75 dB -24.96 dB 4:56 20-St. Matthew Passion, BWV 244, Pt. 1: Aria and Chorus: Ich will bei meinem Jesu wachen (Tenor, Chorus)
DR12 -11.03 dB -30.30 dB 0:41 21-St. Matthew Passion, BWV 244, Pt. 1: Recitative: Und ging hin ein wenig (Evangelist, Jesus)
DR17 -5.65 dB -30.89 dB 0:54 22-St. Matthew Passion, BWV 244, Pt. 1: Recitative: Der Heiland fällt vor seinem Vater nieder (Bass)
DR16 -10.89 dB -31.23 dB 3:52 23-St. Matthew Passion, BWV 244, Pt. 1: Aria: Gerne will ich mich bequemen (Bass)
DR12 -9.16 dB -28.44 dB 1:11 24-St. Matthew Passion, BWV 244, Pt. 1: Recitative: Und er kam zu seinen Jüngern (Evangelist, Jesus)
DR12 -4.99 dB -20.46 dB 0:58 25-St. Matthew Passion, BWV 244, Pt. 1: Chorale: Was mein Gott will, das g'scheh allzeit (Chorus)
DR15 -7.94 dB -29.30 dB 2:17 26-St. Matthew Passion, BWV 244, Pt. 1: Recitative: Und er kam und fand sie aber schlafend (Evangelist, Jesus, Judas)
DR14 0.00 dB -21.68 dB 5:03 27-St. Matthew Passion, BWV 244, Pt. 1: Aria and Chorus: So ist mein Jesus nun gefangen (Alto, Soprano, Chorus)
DR15 -8.48 dB -27.65 dB 2:01 28-St. Matthew Passion, BWV 244, Pt. 1: Recitative: Und siehe, einer aus denen (Evangelist, Jesus)
DR13 -5.16 dB -23.87 dB 5:35 29-St. Matthew Passion, BWV 244, Pt. 1: Chorale: O Mensch, bewein dein Sünde groß (Chorus)
DR13 -4.00 dB -25.29 dB 3:28 30-St. Matthew Passion, BWV 244, Pt. 2: Aria and Chorus: Ach! Nun ist mein Jesus hin (Alto, Chorus)
DR16 -11.32 dB -32.22 dB 1:02 31-St. Matthew Passion, BWV 244, Pt. 2: Recitative: Die aber Jesum gegriffen hatten (Evangelist)
DR11 -5.07 dB -20.19 dB 0:39 32-St. Matthew Passion, BWV 244, Pt. 2: Chorale: Mir hat die Welt trüglich gericht' (Chorus)
DR14 -10.90 dB -30.16 dB 1:12 33-St. Matthew Passion, BWV 244, Pt. 2: Recitative: Und wiewohl viel falsche Zeugen herzutraten (Evangelist, Testis, Pontifex)
DR13 -16.06 dB -34.73 dB 1:04 34-St. Matthew Passion, BWV 244, Pt. 2: Recitative: Mein Jesus schweigt zu falschen Lügen stille (Tenor)
DR16 -9.53 dB -30.54 dB 3:48 35-St. Matthew Passion, BWV 244, Pt. 2: Aria: Geduld! (Tenor)
DR13 -1.49 dB -22.74 dB 1:58 36-St. Matthew Passion, BWV 244, Pt. 2: Recitative and Chorus: Und der Hohepriester antwortete (Evangelist, Pontifex, Jesus, Chorus)
DR11 -13.64 dB -29.34 dB 0:59 37-St. Matthew Passion, BWV 244, Pt. 2: Chorale: Wer hat dich so geschlagen (Chorus)
DR16 -7.73 dB -29.81 dB 2:27 38-St. Matthew Passion, BWV 244, Pt. 2: Recitative and Chorus: Petrus aber saß draußen im Palast (Evangelist, Petrus, Ancilla, Chorus)
DR14 -11.29 dB -29.91 dB 7:03 39-St. Matthew Passion, BWV 244, Pt. 2: Aria: Erbarme dich (Alto)
DR13 -5.15 dB -23.03 dB 1:01 40-St. Matthew Passion, BWV 244, Pt. 2: Chorale: Bin ich gleich von dir gewichen (Chorus)
DR15 -6.03 dB -27.56 dB 1:44 41-St. Matthew Passion, BWV 244, Pt. 2: Recitative and Chorus: Des Morgens aber hielten alle Hohepriester (Evangelist, Judas, Chorus, Pontifices)
DR15 -8.63 dB -27.73 dB 2:45 42-St. Matthew Passion, BWV 244, Pt. 2: Aria: Gebt mir meinen Jesum wieder (Bass)
DR16 -9.27 dB -33.50 dB 2:05 43-St. Matthew Passion, BWV 244, Pt. 2: Recitative: Sie hielten aber einen Rat (Evangelist, Pilatus, Jesus)
DR11 -13.53 dB -28.86 dB 1:06 44-St. Matthew Passion, BWV 244, Pt. 2: Chorale: Befiehl du deine Wege (Chorus)
DR14 -1.90 dB -23.57 dB 2:11 45-St. Matthew Passion, BWV 244, Pt. 2: Recitative and Chorus: Auf das Fest aber hatte der Landpfleger (Evangelist, Pilatus, Uxor Pilati, Chorus)
DR11 -7.86 dB -24.46 dB 0:43 46-St. Matthew Passion, BWV 244, Pt. 2: Chorale: Wie wunderbarlich ist doch diese Strafe (Chorus)
DR14 -20.84 dB -37.61 dB 0:18 47-St. Matthew Passion, BWV 244, Pt. 2: Recitative: Der Landpfleger sagte (Evangelist, Pilatus)
DR13 -5.31 dB -26.84 dB 1:16 48-St. Matthew Passion, BWV 244, Pt. 2: Recitative: Er hat uns allen wohlgetan (Soprano)
DR14 -9.01 dB -28.70 dB 5:28 49-St. Matthew Passion, BWV 244, Pt. 2: Aria: Aus Liebe will mein Heiland sterben (Soprano)
DR13 -1.58 dB -19.33 dB 1:47 50-St. Matthew Passion, BWV 244, Pt. 2: Recitative and Chorus: Sie schrieen aber noch mehr (Evangelist, Chorus, Pilatus)
DR13 -7.38 dB -25.14 dB 1:00 51-St. Matthew Passion, BWV 244, Pt. 2: Recitative: Erbarm es Gott (Alto)
DR15 -10.60 dB -30.69 dB 6:20 52-St. Matthew Passion, BWV 244, Pt. 2: Aria: Können Tränen meiner Wangen (Alto)
DR13 -5.00 dB -24.82 dB 1:07 53-St. Matthew Passion, BWV 244, Pt. 2: Recitative and Chorus: Da nahmen die Kriegsknechte (Evangelist, Chorus)
DR12 -3.22 dB -21.59 dB 1:58 54-St. Matthew Passion, BWV 244, Pt. 2: Chorale: O Haupt voll Blut und Wunden (Chorus)
DR12 -13.32 dB -33.10 dB 1:09 55-St. Matthew Passion, BWV 244, Pt. 2: Recitative: Und da sie ihn verspottet hatten (Evangelist)
DR14 -12.46 dB -32.52 dB 0:33 56-St. Matthew Passion, BWV 244, Pt. 2: Recitative: Ja! freilich will in uns das Fleisch und Blut (bass)
DR14 -12.26 dB -32.48 dB 6:16 57-St. Matthew Passion, BWV 244, Pt. 2: Aria: Komm, süßes Kreuz (Bass)
DR14 -2.23 dB -22.37 dB 3:20 58-St. Matthew Passion, BWV 244, Pt. 2: Recitative and Chorus: Und da sie an die Stätte kamen mit (Evangelist, Chorus)
DR12 -10.31 dB -27.90 dB 1:21 59-St. Matthew Passion, BWV 244, Pt. 2: Recitative: Ach Golgatha, unsel'ges Golgatha (Alto)
DR13 -11.89 dB -29.56 dB 3:07 60-St. Matthew Passion, BWV 244, Pt. 2: Aria and Chorus: Sehet, Jesus hat die Hand (Alto, Chorus)
DR16 -6.41 dB -30.67 dB 2:24 61-St. Matthew Passion, BWV 244, Pt. 2: Recitative and Chorus: Und von der sechsten Stunde an (Evangelist, Jesus, Chorus)
DR12 -22.55 dB -39.96 dB 1:45 62-St. Matthew Passion, BWV 244, Pt. 2: Chorale: Wenn ich einmal soll scheiden (Chorus)
DR14 -3.39 dB -24.73 dB 2:35 63-St. Matthew Passion, BWV 244, Pt. 2: Recitative and Chorus: Und siehe da, der Vorhang im Tempel zerriß (Evangelist, Chorus)
DR16 -12.27 dB -32.87 dB 1:50 64-St. Matthew Passion, BWV 244, Pt. 2: Recitative: Am Abend, da es kühle war (Bass)
DR14 -11.73 dB -29.31 dB 6:36 65-St. Matthew Passion, BWV 244, Pt. 2: Aria: Mache dich, mein Herze, rein (Bass)
DR14 -2.10 dB -22.96 dB 2:35 66-St. Matthew Passion, BWV 244, Pt. 2: Recitative and Chorus: Und Joseph nahm den Leib (Evangelist, Chorus, Pilatus)
DR14 -8.79 dB -27.70 dB 1:50 67-St. Matthew Passion, BWV 244, Pt. 2: Recitative and Chorus: Nun ist der Herr zur Ruh gebracht (Bass, Tenor, Alto, Soprano, Chorus)
DR16 -3.09 dB -24.32 dB 5:19 68-St. Matthew Passion, BWV 244, Pt. 2: Chorale: Wir setzen uns mit Tränen nieder (Chorus)
––––––––––––––––––––––––––––––––––––––––

Number of tracks: 68
Official DR value: DR14

Samplerate: 96000 Hz
Channels: 2
Bits per sample: 24
Bitrate: 2359 kbps
Codec: FLAC
================================================================================


John Eliot Gardiner - Bach: St Matthew Passion BWV 244 (2017) [Official Digital Download 24/96]


Thanks to the Original customer.