John Denver - Greatest Hits Vol. 3 (Remastered) (1984/2011/2017) [Official Digital Download]

Posted By: Pisulik
John Denver - Greatest Hits Vol. 3 (Remastered) (1984/2011/2017) [Official Digital Download]

John Denver - Greatest Hits Vol. 3 (Remastered) (1984/2011/2017)
FLAC (tracks) 24-bit/44.1 kHz | Time - 38:44 minutes | 414 MB
Studio Master, Official Digital Download | Artwork: Front cover

By the end of the '70s, John Denver was still a star, but he didn't have many hits. That situation didn't improve in the early '80s, as his records started sliding slowly down the charts. This is the era that Greatest Hits, Volume 3 covers – one that found Denver's popularity fading, but not necessarily his skills. Sure, his songs don't sound as effortless or charming as they used to, but the best moments from these years (most of which are captured on this compilation) illustrate that he was still capable of crafting ingratiating folk-pop songs. It's not for every listener, but fans of Denver's classic years that want to dig a little deeper may find some gems here.

Tracklist:

01. How Can I Leave You Again (Remastered)
02. Some Days Are Diamonds (Some Days Are Stone) (Remastered)
03. Shanghai Breezes (Remastered)
04. Seasons of the Heart (Remastered)
05. Perhaps Love (2011 Greatest Hits Vol. 3)
06. Love Again (Remastered)
07. Dancing with the Mountains (2011 Greatest Hits Vol. 3)
08. Wild Montana Skies (2011 It's About Time)
09. I Want to Live (Remastered)
10. The Gold And Beyond (2011 Greatest Hits Vol. 3)
11. Autograph (2011 Greatest Hits Vol. 3)

Personnel:

John Denver - vocals, guitar, acoustic guitar
Emmylou Harris - vocals
Plácido Domingo - vocals
Sylvie Vartan - vocals
James Burton - acoustic guitar, electric guitar
Herb Pedersen - acoustic guitar, background vocals
Denny Brooks - acoustic guitar, background vocals
Jimmy Capps - acoustic guitar
Ray Edenton - acoustic guitar
Lee Ritenour - electric guitar, classical guitar
Bill Sanford - electric guitar
Bernie Leadon - electric guitar
Jim Horn - flute, reeds
Dan Wheetman - harmonica
Hardin, Hargus "Pig" Robbins - piano
Frank Owens - piano
Michael Lang - keyboards
Hal Blaine - drums
Jerry Carrigan - drums
Allan Schwartzberg - drums
Renee Armand - background vocals
Mike Crumm - background vocals
Conrad Reeder - background vocals
John Henry Kurtz - background vocals
Patti Austin - background vocals

foobar2000 1.3.7 / Dynamic Range Meter 1.1.1
log date: 2017-10-24 01:29:38

––––––––––––––––––––––––––––––––––––––––
Analyzed: John Denver / Greatest Hits Vol. 3
––––––––––––––––––––––––––––––––––––––––

DR Peak RMS Duration Track
––––––––––––––––––––––––––––––––––––––––
DR10 -0.02 dB -13.81 dB 3:11 01-How Can I Leave You Again (Remastered)
DR11 -0.17 dB -15.04 dB 4:08 02-Some Days Are Diamonds (Some Days Are Stone) (Remastered)
DR11 0.00 dB -14.63 dB 3:15 03-Shanghai Breezes (Remastered)
DR12 0.00 dB -16.77 dB 3:51 04-Seasons of the Heart (Remastered)
DR10 -0.77 dB -14.62 dB 2:59 05-Perhaps Love (2011 Greatest Hits Vol. 3)
DR11 0.00 dB -13.87 dB 2:54 06-Love Again (Remastered)
DR11 0.00 dB -14.82 dB 4:02 07-Dancing with the Mountains (2011 Greatest Hits Vol. 3)
DR11 -0.84 dB -16.50 dB 4:05 08-Wild Montana Skies (2011 It's About Time)
DR10 0.00 dB -14.51 dB 3:48 09-I Want to Live (Remastered)
DR9 0.00 dB -14.11 dB 2:55 10-The Gold And Beyond (2011 Greatest Hits Vol. 3)
DR13 -0.59 dB -16.50 dB 3:37 11-Autograph (2011 Greatest Hits Vol. 3)
––––––––––––––––––––––––––––––––––––––––

Number of tracks: 11
Official DR value: DR11

Samplerate: 44100 Hz
Channels: 2
Bits per sample: 24
Bitrate: 1478 kbps
Codec: FLAC
================================================================================


All thanks go to the original releaser