Julie Steinberg, David Abel - Debussy, Bartók, Brahms: Sonatas for Violin & Piano (1987/2014) [24/176]

Posted By: SERTiL
Julie Steinberg, David Abel - Debussy, Bartók, Brahms: Sonatas for Violin & Piano (1987/2014) [24/176]

Julie Steinberg, David Abel - Debussy, Bartók, Brahms: Sonatas for Violin & Piano (1987/2014)
FLAC (tracks) 24-bit/176.4 kHz | Time - 47:03 minutes | 1.23 GB
Studio Master, Official Digital Download | Artwork: Digital booklet

David Abel, violin. Julie Steinberg, piano. Perhaps the most transcendent of David Wilson's brilliant recordings, this remarkable album of solo violin accompanied by piano comes as close to putting the two performers in the listening room as any ever made, writes The Absolute Sound, of Sonatas for Violin & Piano.

'The duo performs these works as if they are one.' (The Absolute Sound)

'This is perhaps the most exquisitely natural recording ever made. All in all, this Wilson record is a triumph of the analog recording art.' (International Audio Review)

Tracklist:

Johannes Brahms (1833-1897)

Violin Sonata No. 1 in G major, Op. 78
1 I. Vivace ma non troppo 10:42
2 II. Adagio 08:41
3 III. Allegro molto moderato 08:46

Claude Debussy (1862-1918)

Violin Sonata in G minor
4 I. Allegro vivo 04:24
5 II. Intermede: Fantastique et leger 03:57
6 III. Finale 04:21

Béla Bartók (1881-1945)

7 Roman nepi tancok (Romanian Folk Dances), BB 68 (arr. for violin and piano) 05:29

Personnel:
David Abel, violin
Julie Steinberg, piano

Recorded by David A. Wilson
Mastering by Bruce Leek, Wilson Audiophile Master Lab
Produced by David A. Wilson and Sheryl Lee Wilson

Recorded on Wilson's Ultramaster Recorder, built by John Curl, and using a spaced pair of Schoeps microphones driving vaccum tube electronics, the recording has a close perspective that heightens transparency and engagement as well as wonderfully capturing the beautiful tonality of Abel's Guarnerius violin and Steinberg's Hamburg Steinway without exaggering their size.

foobar2000 1.3.7 / Dynamic Range Meter 1.1.1
log date: 2018-01-25 20:15:17

––––––––––––––––––––––––––––––––––––––––
Analyzed: Julie Steinberg, David Abel / Brahms, Debussy, Bartók: Sonatas for Violin & Piano
––––––––––––––––––––––––––––––––––––––––

DR Peak RMS Duration Track
––––––––––––––––––––––––––––––––––––––––
DR16 -4.36 dB -26.10 dB 10:54 01-Violin Sonata No. 1 in G Major, Op. 78: I. Vivace ma non troppo
DR16 -6.76 dB -27.95 dB 8:48 02-Violin Sonata No. 1 in G Major, Op. 78: II. Adagio
DR15 -8.42 dB -28.30 dB 8:50 03-Violin Sonata No. 1 in G Major, Op. 78: III. Allegro molto moderato
DR15 -4.63 dB -26.44 dB 4:32 04-Violin Sonata in G Minor: I. Allegro vivo
DR16 -5.56 dB -28.43 dB 4:01 05-Violin Sonata in G Minor: II. Intermede: Fantastique et leger
DR15 -3.92 dB -25.43 dB 4:30 06-Violin Sonata in G Minor: III. Finale
DR15 -5.59 dB -26.80 dB 5:34 07-Roman nepi tancok (Romanian Folk Dances), BB 68 (arr. for violin and piano)
––––––––––––––––––––––––––––––––––––––––

Number of tracks: 7
Official DR value: DR15

Samplerate: 176400 Hz
Channels: 2
Bits per sample: 24
Bitrate: 3652 kbps
Codec: FLAC
================================================================================


Thanks to the Original customer.