Herbert von Karajan & Philharmonia Orchestra - Karajan conducts Respighi, Berlioz & Liszt (2014) [24/96]

Posted By: SERTiL
Herbert von Karajan & Philharmonia Orchestra - Karajan conducts Respighi, Berlioz & Liszt (2014) [24/96]

Herbert von Karajan & Philharmonia Orchestra - Karajan conducts Respighi, Berlioz & Liszt (2014)
FLAC (tracks) 24-bit/96 kHz | Time - 48:25 minutes | 972 MB
Studio Master, Official Digital Download | Artwork: Digital Booklet

The Karajan Official Remastered Edition contains official remastering of the finest recordings the Austrian conductor made for EMI between 1946 and 1984, which are now a jewel of the Warner Classics catalog.

For many, Herbert von Karajan (1908-1989) hailed early in his career as Das Wunder Karajan (The Karajan Miracle) and known in the early 1960s as the music director of Europe remains the ultimate embodiment of the maestro. The release of the Karajan Official Remastered Edition over the first half of 2014 marks the 25th anniversary of the conductors death in July 1989 at the age of 81.

He was closely associated with EMI for the majority of his recording career (specifically from 1946 to 1960 and then again from 1969 to 1984). EMIs legendary producer Walter Legge sought him out in Vienna just after World War II and the long relationship that ensued embraced recordings with the Vienna Philharmonic, the Philharmonia (the orchestra founded by Legge), the Berlin Philharmonic (of which Karajan became conductor for life in 1955), La Scala, Milan, and the Orchestre de Paris.

Tracklist:

Ottorino Respighi (1879-1936)

The Pines of Rome, symphonic poem, P. 141
1. I. The Pines of Villa Borghese (I pini di Villa Borghese) 2:50
2. II. The Pines near a Catacomb (Pini presso una catacomba) 6:57
3. III. The Pines of the Janiculum (I pini del Gianicolo) 6:50
4. IV. The Pines of the Appian Way (I pini della Via Appia) 6:14

Hector Berlioz (1803-1869)

5. Le Carnaval romain, Op. 9: Overture 9:21

Franz Liszt (1811–1886)

6. Les Préludes, symphonic poem No. 3, S97 16:13

Personnel:
Berlin Philharmonic Orchestra
Herbert von Karajan, conductor

Recorded 1958 at Kingsway Hall, London
Engineered by Douglas Larter and Liszt)Robert Becket & Harold Davidson
Produced by Walte Legge

Digitally remastered

foobar2000 1.3.7 / Dynamic Range Meter 1.1.1
log date: 2018-01-23 16:35:23

––––––––––––––––––––––––––––––––––––––––
Analyzed: Philharmonia Orchestra, Herbert von Karajan / Karajan conducts Respighi, Berlioz & Liszt
––––––––––––––––––––––––––––––––––––––––

DR Peak RMS Duration Track
––––––––––––––––––––––––––––––––––––––––
DR12 -1.28 dB -18.11 dB 2:50 01-The Pines of Rome, symphonic poem, P. 141: I. The Pines of Villa Borghese
DR12 -0.61 dB -19.52 dB 6:58 02-The Pines of Rome, symphonic poem, P. 141: II. The Pines near a Catacomb
DR13 -8.98 dB -30.19 dB 6:51 03-The Pines of Rome, symphonic poem, P. 141: III. The Pines of the Janiculum
DR9 -0.32 dB -14.36 dB 6:14 04-The Pines of Rome, symphonic poem, P. 141: IV. The Pines of the Appian Way
DR12 -2.65 dB -21.28 dB 9:22 05-Le Carnaval romain, Op. 9: Overture
DR13 -1.07 dB -19.75 dB 16:13 06-Les Préludes, symphonic poem No. 3, S97
––––––––––––––––––––––––––––––––––––––––

Number of tracks: 6
Official DR value: DR12

Samplerate: 96000 Hz
Channels: 2
Bits per sample: 24
Bitrate: 2783 kbps
Codec: FLAC
================================================================================


Thanks to the Original customer.