Subcategories

Kinga Glyk - Dream (2017) [Official Digital Download 24/96]

Posted By: Pisulik
Kinga Glyk - Dream (2017) [Official Digital Download 24/96]

Kinga Glyk - Dream (2017)
FLAC (tracks) 24-bit/96 kHz | Time - 41:04 minutes | 789 MB
Studio Master, Official Digital Download | Artwork: Front cover

It is a jazz sensation that Kinga Glyk released her album "Dream", a virtuosic mixture of jazz, blues and funk, which the young Polish bassist recorded with a high-caliber band: Tim Garland (saxophone), Nitai Hershkovits Piano) and Gregory Hutchinson (drums) are currently among the most sought-after musicians in the international jazz scene. On the program are predominantly own compositions Glyks, in addition one can on a duo version of their viral hit "Tears In Heaven".

Tracklist:

01. Freedom
02. Difficult Choices
03. Dream
04. Song for Dad
05. Circle
06. Walking Baby
07. Tears in Heaven
08. Teen Town
09. Silence

foobar2000 1.3.7 / Dynamic Range Meter 1.1.1
log date: 2017-10-20 01:35:42

––––––––––––––––––––––––––––––––––––––––
Analyzed: Kinga Glyk / Dream
––––––––––––––––––––––––––––––––––––––––

DR Peak RMS Duration Track
––––––––––––––––––––––––––––––––––––––––
DR11 -1.00 dB -15.02 dB 5:02 01-Freedom
DR11 -1.00 dB -13.43 dB 4:54 02-Difficult Choices
DR12 -1.00 dB -16.34 dB 5:14 03-Dream
DR11 -1.58 dB -16.79 dB 4:08 04-Song for Dad
DR12 -1.00 dB -14.50 dB 4:32 05-Circle
DR11 -1.00 dB -13.75 dB 6:15 06-Walking Baby
DR12 -1.01 dB -14.66 dB 3:17 07-Tears in Heaven
DR11 -1.00 dB -13.47 dB 5:34 08-Teen Town
DR12 -4.56 dB -21.38 dB 2:08 09-Silence
––––––––––––––––––––––––––––––––––––––––

Number of tracks: 9
Official DR value: DR11

Samplerate: 96000 Hz
Channels: 2
Bits per sample: 24
Bitrate: 2273 kbps
Codec: FLAC
================================================================================


All thanks go to the original releaser