Mika Putterman & Erin Helyard - Kuhlau: Grandes Sonates, Op. 71 & 83 (2018) [Official Digital Download 24/96]

Posted By: SERTiL
Mika Putterman & Erin Helyard - Kuhlau: Grandes Sonates, Op. 71 & 83 (2018) [Official Digital Download 24/96]

Mika Putterman & Erin Helyard - Kuhlau: Grandes Sonates, Op. 71 & 83 (2018)
FLAC (tracks) 24-bit/96 kHz | Time - 65:34 minutes | 1.21 GB
Studio Master, Official Digital Download | Artwork: Front Cover

"Interpreted with flair and brilliance by the great flutist Mika Putterman and the virtuoso of the fortepiano and harpsichord Erin Helyard, Friedrich Kuhlau's sonatas have inspired many artists through time. Among them, Johannes Brahms who, so impressed by these works, wrote to Clara Schumann in 1854 that he wanted to learn the flute only to be able to interpret Kuhlau's works with her on the piano." - Arts et Culture

"Kuhlau was considered in his lifetime as an important composer for this instrument and his works for the flute are idiomatic and remain, still today, references of this repertoire." - L'initiative

Tracklist:

Friedrich Kuhlau (1786-1832)

1. Grand Sonata for Fortepiano and Flute Obbligato, Op. 71: I. Allegro molto con energia 14:39
2. Grand Sonata for Fortepiano and Flute Obbligato, Op. 71: II. Scherzo, Presto, Trio 06:53
3. Grand Sonata for Fortepiano and Flute Obbligato, Op. 71: III. Andante sostenuto 03:30
4. Grand Sonata for Fortepiano and Flute Obbligato, Op. 71: IV. Rondo Allegro 08:36
5. Grand Sonata for Fortepiano and Flute Obbligato, Op. 83, No. 1: I. Allegro con fuoco 10:20
6. Grand Sonata for Fortepiano and Flute Obbligato, Op. 83, No. 1: II. Variations sur un ancien air suédois - Introduzione – Andantino quasi Allegretto 02:25
7. Grand Sonata for Fortepiano and Flute Obbligato, Op. 83, No. 1: III. Variations sur un ancien air suédois - Variation I 00:37
8. Grand Sonata for Fortepiano and Flute Obbligato, Op. 83, No. 1: IV. Variations sur un ancien air suédois - Variation II 00:36
9. Grand Sonata for Fortepiano and Flute Obbligato, Op. 83, No. 1: V. Variations sur un ancien air suédois - Variation III 00:35
10. Grand Sonata for Fortepiano and Flute Obbligato, Op. 83, No. 1: VI. Variations sur un ancien air suédois - Variation IV 00:33
11. Grand Sonata for Fortepiano and Flute Obbligato, Op. 83, No. 1: VII. Variations sur un ancien air suédois - Variation V 00:54
12. Grand Sonata for Fortepiano and Flute Obbligato, Op. 83, No. 1: VIII. Variations sur un ancien air suédois - Variation VI 03:23
13. Grand Sonata for Fortepiano and Flute Obbligato, Op. 83, No. 1: IX. Allegro 12:33

Personnel:
Mika Putterman (flute)
Erin Helyard (piano)

foobar2000 1.3.7 / Dynamic Range Meter 1.1.1
log date: 2018-04-13 22:42:27

––––––––––––––––––––––––––––––––––––––––
Analyzed: Mika Putterman & Erin Helyard / Kuhlau: Grandes Sonates, Op. 71 & 83
––––––––––––––––––––––––––––––––––––––––

DR Peak RMS Duration Track
––––––––––––––––––––––––––––––––––––––––
DR15 -0.20 dB -18.96 dB 14:40 01-I. Allegro molto con energia
DR12 -1.66 dB -18.15 dB 6:54 02-II. Scherzo, Presto, Trio
DR11 -2.84 dB -19.39 dB 3:30 03-III. Andante sostenuto
DR14 -0.20 dB -18.43 dB 8:36 04-IV. Rondo Allegro
DR14 -0.20 dB -18.50 dB 10:20 05-I. Allegro con fuoco
DR14 -0.20 dB -21.29 dB 2:26 06-II. Variations sur un ancien air suedois - Introduzione – Andantino quasi Allegretto
DR9 -6.96 dB -21.80 dB 0:37 07-III. Variations sur un ancien air suedois - Variation I
DR11 -7.40 dB -23.10 dB 0:37 08-IV. Variations sur un ancien air suedois - Variation II
DR10 -6.91 dB -20.96 dB 0:35 09-V. Variations sur un ancien air suedois - Variation III
DR12 -1.72 dB -17.85 dB 0:33 10-VI. Variations sur un ancien air suedois - Variation IV
DR9 -7.07 dB -21.05 dB 0:54 11-VII. Variations sur un ancien air suedois - Variation V
DR13 -0.69 dB -20.12 dB 3:23 12-VIII. Variations sur un ancien air suedois - Variation VI
DR15 -0.20 dB -18.94 dB 12:33 13-IX. Allegro
––––––––––––––––––––––––––––––––––––––––

Number of tracks: 13
Official DR value: DR13

Samplerate: 96000 Hz
Channels: 2
Bits per sample: 24
Bitrate: 2637 kbps
Codec: FLAC
================================================================================


Thanks to the Original customer.