Subcategories

Kyung-Wha Chung - Bach: Complete Sonatas & Partitas (2016) [TR24][OF]

Posted By: SERTiL
Kyung-Wha Chung - Bach: Complete Sonatas & Partitas (2016) [TR24][OF]

Kyung-Wha Chung - Bach: Complete Sonatas & Partitas
Classical | FLAC (tracks) 24-bit/96 kHz | 136:55 min | 2.51 GB | Digital booklet
Label: Warner Classics | Tracks: 27 | Rls.date: 2016

“I’m delighted to announce that I am so happy to be returning to the recording studio after many years for a series of exciting artistic projects.The first of these is the solo Sonatas & Partitas of J.S.Bach: a monumental task. This is the unending quest of my musical journey.” – Kyung Wha Chung

After a career break of more than a decadeshe has announced the decision to return to the recording studio. With this album she fulfils a lifelong dream of recording the complete violin solo works byJ.S. Bach, a project very close to her heart. The album, recorded at St George’s Bristol, will showcaseKyung Wha Chungas themaverick of the violin that she is with her inimitable and timeless sound.

TRACKLIST
Sonata No.1 in G minor, BWV 1001
1 Adagio 4.07
2 Fuga 5.05
3 Siciliana 3.13
4 Presto 3.51
Partita No.1 in B minor, BWV 1002
5 Allemanda 6.43
6 Corrente 6.51
7 Sarabande 6.32
8 Tempo di Borea 6.39
Sonata No.2 in A minor, BWV 1003
9 Grave 4.24
10 Fuga 8.09
11 Andante 5.08
12 Allegro 5.39
Partita No.2 in D minor, BWV 1004
13 Allemanda 4.35
14 Corrente 2.40
15 Sarabanda 4.00
16 Giga 4.20
17 Ciaccona 13.44
Sonata No.3 in C, BWV 1005
18 Adagio 3.48
19 Fuga 10.14
20 Largo 3.29
21 Allegro assai 4.56
Partita No.3 in E, BWV 1006
22 Preludio 3.24
23 Loure 4.15
24 Gavotte en rondeau 2.57
25 Menuet I — Menuet II 4.09
26 Bourrée 1.31
27 Gigue 1.55

foobar2000 1.3.7 / Замер динамического диапазона (DR) 1.1.1
Дата отчёта: 2016-12-15 18:46:09

––––––––––––––––––––––––––––––––––––––––
Анализ: Kyung-Wha Chung / Bach: Complete Sonatas & Partitas for Violin Solo
––––––––––––––––––––––––––––––––––––––––

DR Пики RMS Продолжительность трека
––––––––––––––––––––––––––––––––––––––––
DR13 -5.23 дБ -22.87 дБ 4:07 01-Bach, JS: Violin Sonata No. 1 in G Minor, BWV 1001: I. Adagio
DR14 -0.63 дБ -19.32 дБ 5:06 02-Bach, JS: Violin Sonata No. 1 in G Minor, BWV 1001: II. Fuga
DR13 -6.00 дБ -23.14 дБ 3:14 03-Bach, JS: Violin Sonata No. 1 in G Minor, BWV 1001: III. Siciliana
DR15 -1.52 дБ -22.32 дБ 4:01 04-Bach, JS: Violin Sonata No. 1 in G Minor, BWV 1001: IV. Presto
DR13 -6.38 дБ -22.87 дБ 6:43 05-Bach, JS: Violin Partita No.1 in B Minor, BWV 1002: I. Allemanda
DR13 -6.18 дБ -22.30 дБ 6:51 06-Bach, JS: Violin Partita No. 1 in B Minor, BWV 1002: II. Corrente
DR14 -5.00 дБ -22.77 дБ 6:32 07-Bach, JS: Violin Partita No. 1 in B Minor, BWV 1002: III. Sarabande
DR14 -3.46 дБ -21.42 дБ 6:49 08-Bach, JS: Violin Partita No. 1 in B Minor, BWV 1002: IV. Tempo di Borea
DR12 -6.94 дБ -23.99 дБ 4:25 09-Bach, JS: Violin Sonata No. 2 in A Minor, BWV 1003: I. Grave
DR14 -1.11 дБ -19.21 дБ 8:10 10-Bach, JS: Violin Sonata No. 2 in A Minor, BWV 1003: II. Fuga
DR13 -6.79 дБ -24.11 дБ 5:09 11-Bach, JS: Violin Sonata No. 2 in A Minor, BWV 1003: III. Andante
DR14 -2.54 дБ -20.56 дБ 5:40 12-Bach, JS: Violin Sonata No. 2 in A Minor, BWV 1003: IV. Allegro
DR13 -3.44 дБ -21.56 дБ 4:35 13-Bach, JS: Violin Partita No. 2 in D Minor, BWV 1004: I. Allemanda
DR13 -5.22 дБ -22.63 дБ 2:40 14-Bach, JS: Violin Partita No. 2 in D Minor, BWV 1004: II. Corrente
DR13 -4.77 дБ -22.25 дБ 4:00 15-Bach, JS: Violin Partita No. 2 in D Minor, BWV 1004: III. Sarabanda
DR14 -4.61 дБ -22.23 дБ 4:21 16-Bach, JS: Violin Partita No. 2 in D Minor, BWV 1004: IV. Giga
DR15 -1.12 дБ -20.68 дБ 13:54 17-Bach, JS: Violin Partita No. 2 in D Minor, BWV 1004: V. Ciaccona
DR13 -4.25 дБ -21.50 дБ 3:48 18-Bach, JS: Violin Sonata No. 3 in C Major, BWV 1005: I. Adagio
DR13 -0.48 дБ -18.53 дБ 10:15 19-Bach, JS: Violin Sonata No. 3 in C Major, BWV 1005: II. Fuga
DR14 -5.83 дБ -24.38 дБ 3:29 20-Bach, JS: Violin Sonata No. 3 in C Major, BWV 1005: III. Largo
DR14 -5.65 дБ -23.08 дБ 5:06 21-Bach, JS: Violin Sonata No. 3 in C Major, BWV 1005: IV. Allegro assai
DR14 -4.75 дБ -21.92 дБ 3:24 22-Bach, JS: Violin Partita No. 3 in E Major, BWV 1006: I. Preludio
DR12 -6.57 дБ -22.65 дБ 4:16 23-Bach, JS: Violin Partita No. 3 in E Major, BWV 1006: II. Loure
DR13 -4.95 дБ -21.39 дБ 2:57 24-Bach, JS: Violin Partita No. 3 in E Major, BWV 1006: III. Gavotte en rondeau
DR13 -5.11 дБ -22.11 дБ 4:10 25-Bach, JS: Violin Partita No. 3 in E Major, BWV 1006: IV. Menuets I & II
DR13 -4.69 дБ -22.01 дБ 1:31 26-Bach, JS: Violin Partita No. 3 in E Major, BWV 1006: V. Bourrée
DR13 -7.47 дБ -23.91 дБ 1:55 27-Bach, JS: Violin Partita No. 3 in E Major, BWV 1006: VI. Gigue
––––––––––––––––––––––––––––––––––––––––

Количество треков: 27
Реальные значения DR: DR13

Частота: 96000 Гц
Каналов: 2
Разрядность: 24
Битрейт: 2560 кбит/с
Кодек: FLAC
================================================================================


Thanks to the Original customer.