Adam Laloum & Victor Julien Laferrière - Brahms, Franck & Debussy Sonates pour violoncelle & piano (2016) [24/96]

Posted By: SERTiL
Adam Laloum & Victor Julien Laferrière - Brahms, Franck & Debussy Sonates pour violoncelle & piano (2016) [24/96]

Adam Laloum & Victor Julien Laferrière - Brahms, Franck & Debussy Sonates pour violoncelle & piano (2016)
FLAC (tracks) 24-bit/96 kHz | Time - 58:34 minutes | 1.10 GB
Studio Master, Official Digital Download | Artwork: Digital booklet

Between post-Romanticism and Symbolism, three masterpieces for cello and piano, created between 1865 and 1915 on either side of the Rhine. And two young talents of the twenty-first century who present their enthralling vision of these three facets of ‘Art Nouveau’.

TRACKLIST

Johannes Brahms (1833-1897)

Sonate pour violoncelle et piano No. 1 en Mi Mineur, Op. 38
1 I. Allegro non troppo 14:50
2 II. Allegretto quasi minuetto 05:28
3 III. Allegro 06:29

César Franck (1822-1890)

Sonate pour violon et piano en La Majeur, FWV 8 (transcription pour violoncelle et piano)
4 I. Allegretto ben moderato 06:05
5 II. Allegro 08:14
6 III. Recitativo-Fantasia, ben moderato 07:26
7 IV. Allegretto poco mosso 06:05

Claude Debussy (1862-1918)

Sonate pour violoncelle et piano en Ré Mineur, L. 135
8 I. Prologue. Lent 04:28
9 II. Sérénade. Modérément animé 03:22
10 III. Finale. Animé 03:33

PERSONNEL
Victor Julien-Laferrière, cello
Adam Laloum, piano

foobar2000 1.3.7 / Dynamic Range Meter 1.1.1
log date: 2017-10-07 16:26:47

––––––––––––––––––––––––––––––––––––––––
Analyzed: Victor Julien Laferrière and Adam Laloum / Brahms, Franck & Debussy: Sonates pour violoncelle & piano
––––––––––––––––––––––––––––––––––––––––

DR Peak RMS Duration Track
––––––––––––––––––––––––––––––––––––––––
DR13 -0.25 dB -19.30 dB 14:50 01-Sonate pour violoncelle et piano No. 1 en Mi Mineur, Op. 38: I. Allegro non troppo
DR13 -2.51 dB -21.29 dB 5:29 02-Sonate pour violoncelle et piano No. 1 en Mi Mineur, Op. 38: II. Allegretto quasi minuetto
DR12 -0.25 dB -15.52 dB 6:29 03-Sonate pour violoncelle et piano No. 1 en Mi Mineur, Op. 38: III. Allegro
DR14 -0.26 dB -20.97 dB 6:06 04-Sonate pour violon et piano en La Majeur, FWV 8 (transcription pour violoncelle et piano): I. Allegretto ben moderato
DR12 -0.26 dB -16.68 dB 8:14 05-Sonate pour violon et piano en La Majeur, FWV 8 (transcription pour violoncelle et piano): II. Allegro
DR11 -0.47 dB -16.71 dB 6:05 07-Sonate pour violon et piano en La Majeur, FWV 8 (transcription pour violoncelle et piano): IV. Allegretto poco mosso
DR14 -0.26 dB -21.88 dB 4:28 08-Sonate pour violoncelle et piano en Ré Mineur, L. 135: I. Prologue. Lent
DR16 -1.55 dB -23.63 dB 3:22 09-Sonate pour violoncelle et piano en Ré Mineur, L. 135: II. Sérénade. Modérément animé
DR13 -0.49 dB -18.83 dB 3:33 10-Sonate pour violoncelle et piano en Ré Mineur, L. 135: III. Finale. Animé
––––––––––––––––––––––––––––––––––––––––

Number of tracks: 9
Official DR value: DR13

Samplerate: 96000 Hz
Channels: 2
Bits per sample: 24
Bitrate: 2382 kbps
Codec: FLAC
================================================================================


Thanks to the Original customer.