Lawson Rollins - Airwaves: The Greatest Hits (2018) [Official Digital Download 24/96]

Posted By: Pisulik
Lawson Rollins - Airwaves: The Greatest Hits (2018) [Official Digital Download 24/96]

Lawson Rollins - Airwaves: The Greatest Hits (2018)
FLAC (tracks) 24-bit/96 kHz | Time - 65:45 minutes | 1,40 GB
Studio Master, Official Digital Download | Artwork: Front cover

Airwaves: The Greatest Hits chronicles a decade's worth of radio hits from Lawson Rollins’ seven solo albums, including the Billboard Top 30 contemporary jazz radio charting songs "Island Time," "Moonlight Samba," "Infinita," "Flight," and "Daybreak." Two new bonus tracks were recorded exclusively for this album: the contemporary jazz future hit "World of Wonder" (featuring the Billboard #1 jazz fusion group 3rd Force) and the classically-inspired, world-music composition "Prado" (featuring 2-time Grammy Award winning Danish violinist Mads Tolling).

Airwaves showcases the melodic, tuneful side of Rollins' music that has set radio airwaves afire since his 2008 debut solo album Infinita. Although Rollins is noted for his fleet-fingered flights of virtuosity, showcased in his viral video hits, such as “The Fire Cadenza,” that have received over 10 million views on YouTube alone, his radio hits find him purely in the service of the melodies and song craft.

Many of the radio edits are markedly different from the album versions and feature performances not heard on the albums and never before made available, such as “In Motion (radio edit)” which showcases an exclusive appearance by Billboard #1 saxophonist Praful. All the tracks have been freshly remastered at world-renowned Sterling Sound in New York.

Tracklist:

01. Island Time
02. Flight
03. Infinita (Radio Edit)
04. In Motion (Radio Edit)
05. Havana Heat (Radio Edit)
06. Berlin Bossa (Radio Edit)
07. Sway
08. Momentum (Radio Edit)
09. Moonlight Samba (Radio Edit)
10. Cafe Paris (Chill Remix)
11. Infinita (Chill Remix)
12. City Electric (Radio Edit)
13. Santa Barbara Song (Radio Edit)
14. Return to Rio (Radio Edit)
15. Daybreak (Radio Edit)
16. Cafe Jobim (Radio Edit)
17. Prado
18. World of Wonder

foobar2000 1.3.7 / Dynamic Range Meter 1.1.1
log date: 2018-01-22 03:55:21

––––––––––––––––––––––––––––––––––––––––
Analyzed: Lawson Rollins / Airwaves: The Greatest Hits
––––––––––––––––––––––––––––––––––––––––

DR Peak RMS Duration Track
––––––––––––––––––––––––––––––––––––––––
DR8 -0.60 dB -10.29 dB 3:28 01-Island Time
DR7 -0.10 dB -9.00 dB 3:24 02-Flight
DR7 -0.10 dB -9.24 dB 4:05 03-Infinita (Radio Edit)
DR7 -0.10 dB -8.56 dB 3:57 04-In Motion (Radio Edit)
DR8 -0.10 dB -9.56 dB 3:39 05-Havana Heat (Radio Edit)
DR7 -0.10 dB -7.92 dB 3:31 06-Berlin Bossa (Radio Edit)
DR8 -0.10 dB -9.39 dB 3:10 07-Sway
DR7 -0.10 dB -8.40 dB 3:47 08-Momentum (Radio Edit)
DR7 -0.10 dB -9.45 dB 3:43 09-Moonlight Samba (Radio Edit)
DR8 0.00 dB -9.98 dB 3:49 10-Cafe Paris (Chill Remix)
DR7 -0.10 dB -9.51 dB 4:35 11-Infinita (Chill Remix)
DR5 -0.10 dB -6.34 dB 2:55 12-City Electric (Radio Edit)
DR7 -0.10 dB -9.44 dB 3:09 13-Santa Barbara Song (Radio Edit)
DR6 -0.10 dB -7.94 dB 3:45 14-Return to Rio (Radio Edit)
DR7 -0.10 dB -9.34 dB 3:54 15-Daybreak (Radio Edit)
DR6 -0.10 dB -9.20 dB 3:46 16-Cafe Jobim (Radio Edit)
DR8 -0.10 dB -9.90 dB 3:54 17-Prado
DR6 -0.10 dB -7.66 dB 3:22 18-World of Wonder
––––––––––––––––––––––––––––––––––––––––

Number of tracks: 18
Official DR value: DR7

Samplerate: 96000 Hz
Channels: 2
Bits per sample: 24
Bitrate: 3323 kbps
Codec: FLAC
================================================================================


All thanks go to the original releaser