Les Arts Florissants & William Christie - J.S. Bach: Mass in B Minor, BWV 232 (Live) (2018) [Official Digital Download]

Posted By: SERTiL
Les Arts Florissants & William Christie - J.S. Bach: Mass in B Minor, BWV 232 (Live) (2018) [Official Digital Download]

Les Arts Florissants & William Christie - J.S. Bach: Mass in B Minor, BWV 232 (Live) (2018)
FLAC (tracks) 24-bit/44.1 kHz | Time - 104:46 minutes | 1.01 GB
Studio Master, Official Digital Download | Artwork: Digital Booklet

The Monteverdi Choir and English Baroque Soloists are renowned of their spectacular performances of Bach’s epic masterpiece, which they have toured extensively.

During their last tour (in Munich, Frankfurt, Lucerne, Aix-en-Provence and Paris) there was a stampede for tickets and they performed every night in full houses, to spellbound audiences.

This album is the culmination of the tour: it was recorded in an open session in London, and captures the special atmosphere of the concerts

It is presented in a 2-CD casebook and contains a booklet featuring original notes by John Eliot Gardiner translated in English, German and French.

"Gardiner’s second recording of the B minor Mass is a predictably exhilarating experience. The opening Kyrie, paced to perfection, leaves one amazed afresh…the chorus (which supplies the mostly fine soloists) is its usual splendid self." (Sunday Times)

"there are special moments, especially in more homophonic writing like ‘Et incarnatus’, sung by the Monteverdi Choir with rapt concentration. The playing of the EBS, too, is outstanding." (Early Music Today)

"Thirty years on, Gardiner’s take on the mass is if anything more exuberant, more joyful than his famous Archiv reading: all concerned seem to share this vision, especially the soloists who step forward from the choir. Textures are all crystal clear, part in thanks to a superbly natural, warm recording. Essential listening." (Classical Music)

Tracklist:

Johann Sebastian Bach (1685 - 1750)

CD1
01. Mass in B minor, BWV 232, Part I, Kyrie, Gloria: Kyrie eleison (Live)
02. Mass in B minor, BWV 232, Part I, Kyrie, Gloria: Christe eleison (Live)
03. Mass in B minor, BWV 232, Part I, Kyrie, Gloria: Kyrie eleison (Live)
04. Mass in B minor, BWV 232, Part I, Kyrie, Gloria: Gloria in excelsis (Live)
05. Mass in B minor, BWV 232, Part I, Kyrie, Gloria: Et in terra pax (Live)
06. Mass in B minor, BWV 232, Part I, Kyrie, Gloria: Laudamus te (Live)
07. Mass in B minor, BWV 232, Part I, Kyrie, Gloria: Gratias agimus tibi (Live)
08. Mass in B minor, BWV 232, Part I, Kyrie, Gloria: Dominus Deus (Live)
09. Mass in B minor, BWV 232, Part I, Kyrie, Gloria: Qui tollis peccata mundi (Live)
10. Mass in B minor, BWV 232, Part I, Kyrie, Gloria: Qui sedes ad dextram Patris (Live)
11. Mass in B minor, BWV 232, Part I, Kyrie, Gloria: Quoniam tu solus sanctus (Live)
12. Mass in B minor, BWV 232, Part I, Kyrie, Gloria: Cum Sancto Spiritu (Live)

CD2
01. Mass in B minor, BWV 232, Part II, Symbolum Nicenum: Credo in unum Deum (Live)
02. Mass in B minor, BWV 232, Part II, Symbolum Nicenum: Patrem omnipotentem (Live)
03. Mass in B minor, BWV 232, Part II, Symbolum Nicenum: Et in unum Dominum (Live)
04. Mass in B minor, BWV 232, Part II, Symbolum Nicenum: Et incarnatus est (Live)
05. Mass in B minor, BWV 232, Part II, Symbolum Nicenum: Crucifixus (Live)
06. Mass in B minor, BWV 232, Part II, Symbolum Nicenum: Et resurrexit (Live)
07. Mass in B minor, BWV 232, Part II, Symbolum Nicenum: Et in Spiritum sanctum Dominum (Live)
08. Mass in B minor, BWV 232, Part II, Symbolum Nicenum: Confiteor (Live)
09. Mass in B minor, BWV 232, Part II, Symbolum Nicenum: Et expecto (Live)
10. Mass in B minor, BWV 232, Part III, Sanctus: Sanctus (Live)
11. Mass in B minor, BWV 232, Part IV, Osanna, Benedictus, Agnus Dei, Dona nobis pacem: Osanna in excelsis (Live)
12. Mass in B minor, BWV 232, Part IV, Osanna, Benedictus, Agnus Dei, Dona nobis pacem: Benedictus (Live)
13. Mass in B minor, BWV 232, Part IV, Osanna, Benedictus, Agnus Dei, Dona nobis pacem: Osanna in excelsis (Live)
14. Mass in B minor, BWV 232, Part IV, Osanna, Benedictus, Agnus Dei, Dona nobis pacem: Agnus Dei (Live)
15. Mass in B minor, BWV 232, Part IV, Osanna, Benedictus, Agnus Dei, Dona nobis pacem: Dona nobis pacem (Live)

Personnel:
Hannah Morrison, soprano
Esther Brazil, mezzo
Meg Bragle, alto
Kate Symonds-Joy, alto
Peter Davoren, tenor
Nick Pritchard, tenor
Alex Ashworth, bass
David Shipley, bass
Monteverdi Choir
English Baroque Soloists
John Eliot Gardiner, conductor

foobar2000 1.3.7 / Dynamic Range Meter 1.1.1
log date: 2018-03-09 14:51:27

––––––––––––––––––––––––––––––––––––––––
Analyzed: Les Arts Florissants and William Christie / J.S. Bach: Mass in B Minor, BWV 232 (Live) (1-18)
Les Arts Florissants, André Morsch and William Christie / J.S. Bach: Mass in B Minor, BWV 232 (Live) (19-20)
Les Arts Florissants, André Morsch, Tim Mead and William Christie / J.S. Bach: Mass in B Minor, BWV 232 (Live) (21)
Les Arts Florissants, Katherine Watson and William Christie / J.S. Bach: Mass in B Minor, BWV 232 (Live) (22)
Les Arts Florissants, Katherine Watson, Reinoud Van Mechelen and William Christie / J.S. Bach: Mass in B Minor, BWV 232 (Live) (23)
Les Arts Florissants, Katherine Watson, Tim Mead and William Christie / J.S. Bach: Mass in B Minor, BWV 232 (Live) (24)
Les Arts Florissants, Reinoud Van Mechelen and William Christie / J.S. Bach: Mass in B Minor, BWV 232 (Live) (25)
Les Arts Florissants, Tim Mead and William Christie / J.S. Bach: Mass in B Minor, BWV 232 (Live) (26-27)
––––––––––––––––––––––––––––––––––––––––

DR Peak RMS Duration Track
––––––––––––––––––––––––––––––––––––––––
DR13 -0.10 dB -18.56 dB 9:54 01-Mass in B minor, BWV 232, Part I, Kyrie, Gloria: Kyrie eleison (Live)
DR12 -1.55 dB -17.51 dB 3:17 03-Mass in B minor, BWV 232, Part I, Kyrie, Gloria: Kyrie eleison (Live)
DR12 -0.10 dB -15.31 dB 1:42 04-Mass in B minor, BWV 232, Part I, Kyrie, Gloria: Gloria in excelsis (Live)
DR12 -0.10 dB -17.34 dB 4:54 05-Mass in B minor, BWV 232, Part I, Kyrie, Gloria: Et in terra pax (Live)
DR11 -0.57 dB -15.18 dB 2:39 07-Mass in B minor, BWV 232, Part I, Kyrie, Gloria: Gratias agimus tibi (Live)
DR11 -5.78 dB -20.45 dB 2:47 09-Mass in B minor, BWV 232, Part I, Kyrie, Gloria: Qui tollis peccata mundi (Live)
DR12 -0.10 dB -15.26 dB 3:56 12-Mass in B minor, BWV 232, Part I, Kyrie, Gloria: Cum Sancto Spiritu (Live)
DR11 -0.63 dB -14.51 dB 1:57 01-Mass in B minor, BWV 232, Part II, Symbolum Nicenum: Credo in unum Deum (Live)
DR12 0.00 dB -14.17 dB 1:50 02-Mass in B minor, BWV 232, Part II, Symbolum Nicenum: Patrem omnipotentem (Live)
DR11 -3.29 dB -20.01 dB 3:15 04-Mass in B minor, BWV 232, Part II, Symbolum Nicenum: Et incarnatus est (Live)
DR11 -2.09 dB -17.34 dB 2:54 05-Mass in B minor, BWV 232, Part II, Symbolum Nicenum: Crucifixus (Live)
DR13 0.00 dB -16.47 dB 4:04 06-Mass in B minor, BWV 232, Part II, Symbolum Nicenum: Et resurrexit (Live)
DR12 -1.50 dB -17.36 dB 4:23 08-Mass in B minor, BWV 232, Part II, Symbolum Nicenum: Confiteor (Live)
DR11 0.00 dB -13.85 dB 2:17 09-Mass in B minor, BWV 232, Part II, Symbolum Nicenum: Et expecto (Live)
DR12 0.00 dB -13.84 dB 4:19 10-Mass in B minor, BWV 232, Part III, Sanctus: Sanctus (Live)
DR12 -1.07 dB -16.97 dB 2:35 11-Mass in B minor, BWV 232, Part IV, Osanna, Benedictus, Agnus Dei, Dona nobis pacem: Osanna in excelsis (Live)
DR12 0.00 dB -15.11 dB 2:33 13-Mass in B minor, BWV 232, Part IV, Osanna, Benedictus, Agnus Dei, Dona nobis pacem: Osanna in excelsis (Live)
DR11 0.00 dB -15.11 dB 2:59 15-Mass in B minor, BWV 232, Part IV, Osanna, Benedictus, Agnus Dei, Dona nobis pacem: Dona nobis pacem (Live)
DR12 -5.78 dB -20.04 dB 4:35 11-Mass in B minor, BWV 232, Part I, Kyrie, Gloria: Quoniam tu solus sanctus (Live)
DR12 -5.53 dB -21.62 dB 5:39 07-Mass in B minor, BWV 232, Part II, Symbolum Nicenum: Et in Spiritum sanctum Dominum (Live)
DR14 -4.57 dB -21.75 dB 4:27 03-Mass in B minor, BWV 232, Part II, Symbolum Nicenum: Et in unum Dominum (Live)
DR15 -4.70 dB -24.20 dB 4:13 06-Mass in B minor, BWV 232, Part I, Kyrie, Gloria: Laudamus te (Live)
DR15 -5.01 dB -24.22 dB 4:59 08-Mass in B minor, BWV 232, Part I, Kyrie, Gloria: Dominus Deus (Live)
DR12 -3.51 dB -21.87 dB 4:54 02-Mass in B minor, BWV 232, Part I, Kyrie, Gloria: Christe eleison (Live)
DR12 -8.50 dB -23.48 dB 4:08 12-Mass in B minor, BWV 232, Part IV, Osanna, Benedictus, Agnus Dei, Dona nobis pacem: Benedictus (Live)
DR14 -5.63 dB -22.80 dB 4:25 10-Mass in B minor, BWV 232, Part I, Kyrie, Gloria: Qui sedes ad dextram Patris (Live)
DR12 -6.82 dB -24.05 dB 5:25 14-Mass in B minor, BWV 232, Part IV, Osanna, Benedictus, Agnus Dei, Dona nobis pacem: Agnus Dei (Live)
––––––––––––––––––––––––––––––––––––––––

Number of tracks: 27
Official DR value: DR12

Samplerate: 44100 Hz
Channels: 2
Bits per sample: 24
Bitrate: 1257 kbps
Codec: FLAC
================================================================================


Thanks to the Original customer.