Lindi Ortega - Liberty (2018) [Official Digital Download]

Posted By: SERTiL
Lindi Ortega - Liberty (2018) [Official Digital Download]

Lindi Ortega - Liberty (2018)
FLAC (tracks) 24-bit/44.1 kHz | Time - 46:26 minutes | 518 MB
Studio Master, Official Digital Download | Artwork: Front Cover

Lindi Ortega "has always been the sonic embodiment of the red cowboy boots she's often seen wearing: a fiery and dramatic take on modern country that's impossible to ignore" (Rolling Stone Country), and her fifth studio record 'Liberty' is no exception.

Ortega wrote roughly half of the twelve tracks solo, and enlisted co-writers Aaron Raitiere, Bruce Wallace and John Paul White (The Civil Wars) for the rest. The result is a three-part concept album reflecting loss, séance, resurrection and freedom.

Recorded at Battle Tapes studio in East Nashville, Ortega and Skylar Wilson (Justin Townes Earle, Rayland Baxter) scaled back the boot-stomping, throwback country approach that she's known for, instead polishing a set of music that reflects her Mexican lineage.

Ortega and Wilson - who first bonded over their shared passion for Quentin Tarantino movies - then enhanced the sonic landscape with the help of Country Music Hall of Fame member Charlie McCoy's signature harmonica and Nashville-based band Steelism, drawing on the epic work of Oscar-winning composer Ennio Morricone, who became one of Ortega's musical obsessions during the writing and recording of 'Liberty.'

"Country's crystalline-voiced goth-rock version of Dolly Parton" (MAGNET)

"The pipes of Patsy Cline with the visual flair of Amy Winehouse" (The Washington Post)

"Genre-defying in both her music and her personal style" (NPR's All Things Considered)

"In the early 2010s, Canadian born alt-country singer/songwriter Lindi Ortega had had enough. Discouraged with not being able to make a living despite having charting records, Juno and Grammy nominations, critical acclaim, and endless touring, she chucked everything: Nashville, her label, her agent, and her manager, and moved to Calgary. She got married and, inspired by her husband and new manager, tried again, resulting in 2017's acclaimed Til the Goin' Gets Gone EP.

Liberty, her cinematic seventh album, is the story of that journey. It's a concept record about a journey through darkness to light. Its songs are thematically linked as stages in transition. Inspired by the spaghetti western scores of Ennio Morricone, Bruno Nicolai, and Nico Fidenco, and the unruly movies of Quentin Tarantino, she returned to Nashville to work with producer Skylar Wilson – the two bonded over Tarantino's films – and wrote or co-wrote songs with him, John Paul White, Bruce Wallace, and Aaron Raitiere. She also enlisted Steelism (Spencer Cullum, Jr. on pedal steel and slide, and guitarist Jeremy Fetzer), a Nashville duo whose predominantly instrumental work gravitates toward a widescreen western style of country. The three sections of the uncharacteristically ballad-heavy Liberty are held together by Steelism's windswept desert theme "Through the Dust." "Afraid of the Dark," co-written with White, offers fingerpicked nylon string and electric slide guitars, upright bass, and tom-toms; the grain in Ortega's voice offers a tale of possession by darkness through self-loathing and depression. A whining steel guitar frames her reverbed singing in a spacious Western, desert-tinged soundscape with the baritone and soprano Liberty Choir chorus adding to the atmosphere. The traces of her rockabilly style pop up in "You Ain't Foolin' Me," which addresses two-faced acquaintances masquerading as friends amid rumbling drums, B-3 organ, and distorted guitars, as well as a lovely mariachi interlude. The other White co-write is "Nothing's Impossible," a lilting, deeply sad honky tonk ballad that could have been produced by a young Owen Bradley. First single "The Comeback Kid (written with Wilson) draws on Marty Robbins, Leon Payne, and Charlie Feathers in a yarn about a character who gets shot but doesn't die, and who's now ready to haunt her would-be assassins: "…You took my life and wrecked it/But I've been resurrected…." (Think Uma Thurman in Kill Bill.) "Forever Blue" is the first song on the journey to the light. Transcendence and transformation are hinted at first in the ethereal "In the Clear," co-written with Raitiere, and episodes of romantic love in "Pablo" and Lovers in Love" offer confirmation that our protagonist is on the right track. Her transition is completed in the languid title track and underscored by the album's lone cover, "Gracias a la Vida," by Chilean composer Violeta Parra; it's a bolero-cum-mariachi that simply and powerfully expresses gratitude for surviving the darkness and for life and its wonders. While Liberty is more often than not gentler in tone than Ortega's preceding albums, it is by far her most innovative and powerful, and stands as her masterwork thus far." (Thom Jurek, AMG)

Tracklist:
01. Through the Dust, Pt. 1
02. Afraid of the Dark
03. You Ain't Foolin' Me
04. Til My Dyin' Day
05. Nothing is Impossible
06. Through the Dust, Pt. 2
07. The Comeback Kid
08. Darkness Be Gone
09. Forever Blue
10. In the Clear
11. Pablo
12. Lovers in Love
13. Through the Dust, Pt. 3
14. Liberty
15. Gracias a La Vida

foobar2000 1.3.7 / Dynamic Range Meter 1.1.1
log date: 2019-01-12 21:03:48

––––––––––––––––––––––––––––––––––––––––
Analyzed: Lindi Ortega / Liberty
––––––––––––––––––––––––––––––––––––––––

DR Peak RMS Duration Track
––––––––––––––––––––––––––––––––––––––––
DR8 -0.38 dB -9.69 dB 1:27 01-Through the Dust, Pt. 1
DR6 -0.30 dB -9.00 dB 4:04 02-Afraid of the Dark
DR7 -0.30 dB -8.03 dB 4:35 03-You Ain't Foolin' Me
DR8 -0.30 dB -10.43 dB 3:02 04-Til My Dyin' Day
DR8 -0.30 dB -10.56 dB 2:44 05-Nothing is Impossible
DR9 -0.30 dB -11.87 dB 1:08 06-Through the Dust, Pt. 2
DR7 -0.30 dB -8.21 dB 3:02 07-The Comeback Kid
DR6 -0.30 dB -9.30 dB 3:53 08-Darkness Be Gone
DR6 -0.30 dB -8.10 dB 3:45 09-Forever Blue
DR10 -0.30 dB -12.84 dB 4:03 10-In the Clear
DR7 -0.30 dB -8.83 dB 4:22 11-Pablo
DR6 -0.30 dB -8.58 dB 3:08 12-Lovers in Love
DR12 -1.38 dB -16.81 dB 1:08 13-Through the Dust, Pt. 3
DR6 -0.30 dB -8.00 dB 3:10 14-Liberty
DR10 -0.42 dB -12.15 dB 3:06 15-Gracias a La Vida
––––––––––––––––––––––––––––––––––––––––

Number of tracks: 15
Official DR value: DR8

Samplerate: 44100 Hz
Channels: 2
Bits per sample: 24
Bitrate: 1442 kbps
Codec: FLAC
================================================================================


Thanks to the Original customer.