Subcategories

Christoph Spering - Bach: Lutherkantaten, Vol. 1 (BWV 62, 36, 91) (2016) [Official Digital Download]

Posted By: SERTiL
Christoph Spering - Bach: Lutherkantaten, Vol. 1 (BWV 62, 36, 91) (2016) [Official Digital Download]

Christoph Spering - Bach: Lutherkantaten, Vol. 1 (BWV 62, 36, 91) (2016)
FLAC (tracks) 24-bit/48 kHz | Time - 63:20 minutes | 650 MB
Studio Master, Official Digital Download | Artwork: Digital booklet

Brand new recording of all Luther cantatas composed by Johann Sebastian Bach. 2017 marks the 500th anniversary of the Protestant Reformation. Half a millennium ago, on October 31, 1517, Martin Luther launched this movement by posting his 95 theses on the door of Wittenberg’s Castle Church. Two centuries later, inspired by Luther’s words, & fully in the spirit of the reformer’s aim of spreading his theories via hymns, Johann Sebastian Bach composed what is probably the most significant body of cantatas based on Luther’s texts. Now, in honour of one of the most important events in Western religious history, Christoph Spering, his choir Chorus Musicus Köln & Das Neue Orchester have recorded Bach’s complete Luther cantatas.

TRACKLIST

Johann Sebastian Bach (1685-1750)

Nun komm, der Heiden Heiland, BWV 62
1 I. Nun komm, der Heiden Heiland 04:24
2 II. Bewundert, o Menschen, dies große Geheimnis 05:32
3 III. So geht aus Gottes Herrlichkeit und Thron 00:46
4 IV. Streite, siege, starker Held! 04:55
5 V. Wir ehren diese Herrlichkeit 00:40
6 VI. Lob sei Gott, dem Vater 00:45

Schwingt freudig euch empor, BWV 36
7 I. Schwingt freudig euch empor 04:12
8 II. Nun komm, der Heiden Heiland 03:29
9 III. Die Liebe zieht mit sanften Schritten 05:45
10 IV. Zwingt die Saiten in Cythara 01:44
11 V. Willkommen, werter Schatz 03:30
12 VI. Der du bist dem Vater gleich 01:34
13 VII. Auch mit gedämpften, schwachen Stimmen 09:14
14 VIII. Lob sei Gott dem Vater 00:42

Gelobet seist du, Jesu Christ , BWV 91
15 I. Gelobet seist du, Jesu Christ 02:23
16 II. Der Glanz der höchsten Herrlichkeit 01:42
17 III. Gott, dem der Erden Kreis zu klein 02:12
18 IV. O Christenheit! 01:20
19 V. Die Armut, so Gott auf sich nimmt 07:05
20 VI. Das hat er alles uns getan 01:03

PERSONNEL
Musicus Köln & Das Neue Orchester
Christoph Spering, conductor

foobar2000 1.3.7 / Dynamic Range Meter 1.1.1
log date: 2017-09-10 19:27:17

––––––––––––––––––––––––––––––––––––––––
Analyzed: Christoph Spering / Bach: Lutherkantaten, Vol. 1 (BWV 62, 36, 91)
––––––––––––––––––––––––––––––––––––––––

DR Peak RMS Duration Track
––––––––––––––––––––––––––––––––––––––––
DR13 -0.36 dB -20.30 dB 4:25 01-Nun komm, der Heiden Heiland, BWV 62: I. Nun komm, der Heiden Heiland
DR15 -2.40 dB -23.37 dB 5:33 02-Nun komm, der Heiden Heiland, BWV 62: II. Bewundert, o Menschen, dies große Geheimnis
DR12 -5.65 dB -25.30 dB 0:47 03-Nun komm, der Heiden Heiland, BWV 62: III. So geht aus Gottes Herrlichkeit und Thron
DR16 -4.64 dB -24.38 dB 4:55 04-Nun komm, der Heiden Heiland, BWV 62: IV. Streite, siege, starker Held!
DR13 -2.52 dB -22.61 dB 0:41 05-Nun komm, der Heiden Heiland, BWV 62: V. Wir ehren diese Herrlichkeit
DR11 -1.37 dB -18.50 dB 0:55 06-Nun komm, der Heiden Heiland, BWV 62: VI. Lob sei Gott, dem Vater
DR14 -1.12 dB -19.85 dB 4:13 07-Schwingt freudig euch empor, BWV 36: I. Schwingt freudig euch empor
DR14 -5.33 dB -23.72 dB 3:29 08-Schwingt freudig euch empor, BWV 36: II. Nun komm, der Heiden Heiland
DR15 -3.16 dB -22.17 dB 5:45 09-Schwingt freudig euch empor, BWV 36: III. Die Liebe zieht mit sanften Schritten
DR12 -3.68 dB -20.06 dB 1:44 10-Schwingt freudig euch empor, BWV 36: IV. Zwingt die Saiten in Cythara
DR15 -2.31 dB -21.77 dB 3:31 11-Schwingt freudig euch empor, BWV 36: V. Willkommen, werter Schatz
DR13 -5.04 dB -20.92 dB 1:35 12-Schwingt freudig euch empor, BWV 36: VI. Der du bist dem Vater gleich
DR17 -1.11 dB -24.78 dB 9:14 13-Schwingt freudig euch empor, BWV 36: VII. Auch mit gedämpften, schwachen Stimmen
DR11 -1.69 dB -19.68 dB 0:53 14-Schwingt Freudig Euch Empor, Bwv 36: VIII. Lob Sei Gott Dem Vater
DR12 -2.56 dB -17.93 dB 2:23 15-Gelobet seist du, Jesu Christ , BWV 91: I. Gelobet seist du, Jesu Christ
DR14 -0.29 dB -21.47 dB 1:43 16-Gelobet seist du, Jesu Christ , BWV 91: II. Der Glanz der höchsten Herrlichkeit
DR11 -7.79 dB -21.59 dB 2:13 17-Gelobet seist du, Jesu Christ , BWV 91: III. Gott, dem der Erden Kreis zu klein
DR13 -6.30 dB -22.67 dB 1:21 18-Gelobet seist du, Jesu Christ , BWV 91: IV. O Christenheit!
DR14 -2.48 dB -20.56 dB 7:05 19-Gelobet seist du, Jesu Christ , BWV 91: V. Die Armut, so Gott auf sich nimmt
DR11 -1.39 dB -17.95 dB 1:04 20-Gelobet seist du, Jesu Christ , BWV 91: VI. Das hat er alles uns getan
––––––––––––––––––––––––––––––––––––––––

Number of tracks: 20
Official DR value: DR13

Samplerate: 48000 Hz
Channels: 2
Bits per sample: 24
Bitrate: 1444 kbps
Codec: FLAC
================================================================================


Thanks to the Original customer.