Maria Ladurner & Biber Consort - Arias for the Emperor (2021) [Official Digital Download 24/96]

Posted By: pyatak
Maria Ladurner & Biber Consort - Arias for the Emperor (2021) [Official Digital Download 24/96]

Maria Ladurner & Biber Consort - Arias for the Emperor (2021) [Official Digital Download 24/96]
FLAC (tracks) 24-bit/96 kHz | Front Cover | Time - 61:15 minutes | 1,04 GB
Classical | Label: Pan Classics, Official Digital Download

Johann Joseph Fux (c 16601741), composer and Kapellmeister at the Viennese Imperial Court, is primarily known for his church and instrumental works. It has been almost completely forgotten that during his lifetime he was also a highly regarded composer for the stage; his operas and oratorios undeservedly relegated to the shadows. This present recording with the young Austrian soprano Maria Ladurner is therefore more than welcome, giving a somewhat deeper insight into the composers stage works. It includes a total of nine arias for soprano, some with their accompanying recitatives, taken from operas and oratorios written between 1708 and 1728, a time when music at the Viennese Imperial Court was at its absolute peak. The focus on soprano arias also intends to draw attention to the singers employed at the Viennese Imperial Court Maria Landini-Conti, Regina Schoonians, Kunigunda Sutter, Faustina Bordoni and Ursula Theresia Holzhauser, some of the outstanding artists of their time.

TRACKLIST

01. Maria Ladurner & Biber Consort - Fux: Giunone placata, K. 316 (Excerpts): Sinfonia
02. Maria Ladurner & Biber Consort - Fux: Dafne in Lauro, K. 308 (Excerpts): Recitativo. Se dunque alla virtute
03. Maria Ladurner & Biber Consort - Fux: Dafne in Lauro, K. 308 (Excerpts): Aria. Il voler vincer amore
04. Maria Ladurner & Biber Consort - Fux: Giunone placata, K. 316 (Excerpts): Aria. Io non potea soffrir
05. Maria Ladurner & Biber Consort - Fux: La desposizione dalla croce di Gesù Cristo Salvator nostro, K. 300 (Excerpts): Recitativo. Caro maestro
06. Maria Ladurner & Biber Consort - Fux: La desposizione dalla croce di Gesù Cristo Salvator nostro, K. 300 (Excerpts): Aria. Caro mio Dio
07. Maria Ladurner & Biber Consort - Fux: Il Fonte della salute, aperto dalla grazia nel calvario, K. 293: Aria. Vedi, che il redentor
08. Maria Ladurner & Biber Consort - Fux: Julo Asciano, K. 304: Aria. Sì, vendetta io voglio far
09. Maria Ladurner & Biber Consort - Fux: La decima fatica d'ercole, K. 307: Aria. Qual' il sol in prato
10. Maria Ladurner & Biber Consort - Fux: Orfeo ed Euridice, K. 309: Aria. Rondinella, che tal volta
11. Maria Ladurner & Biber Consort - Fux: Il testamento di nostro Signor Gesù Cristo sul Calvario, K. 299: Aria. Si tempra il mio martir

foobar2000 1.6.2 / Dynamic Range Meter 1.1.1
log date: 2021-05-04 10:57:24

––––––––––––––––––––––––––––––––––––––––
Analyzed: Maria Ladurner & Biber Consort / Arias for the Emperor
––––––––––––––––––––––––––––––––––––––––

DR Peak RMS Duration Track
––––––––––––––––––––––––––––––––––––––––
DR13 -8.30 dB -27.02 dB 4:45 01-Fux: Giunone placata, K. 316 (Excerpts): Sinfonia
DR13 -6.16 dB -22.95 dB 0:34 02-Fux: Dafne in Lauro, K. 308 (Excerpts): Recitativo. Se dunque alla virtute
DR12 -0.50 dB -18.41 dB 4:56 03-Fux: Dafne in Lauro, K. 308 (Excerpts): Aria. Il voler vincer amore
DR15 -0.50 dB -22.49 dB 8:02 04-Fux: Giunone placata, K. 316 (Excerpts): Aria. Io non potea soffrir
DR14 -2.72 dB -21.75 dB 1:43 05-Fux: La desposizione dalla croce di Gesù Cristo Salvator nostro, K. 300 (Excerpts): Recitativo. Caro maestro
DR14 -0.50 dB -19.97 dB 10:09 06-Fux: La desposizione dalla croce di Gesù Cristo Salvator nostro, K. 300 (Excerpts): Aria. Caro mio Dio
DR14 -2.50 dB -22.03 dB 5:56 07-Fux: Il Fonte della salute, aperto dalla grazia nel calvario, K. 293: Aria. Vedi, che il redentor
DR15 -0.50 dB -20.26 dB 3:03 08-Fux: Julo Asciano, K. 304: Aria. Sì, vendetta io voglio far
DR16 -0.50 dB -21.89 dB 8:55 09-Fux: La decima fatica d'ercole, K. 307: Aria. Qual' il sol in prato
DR15 -0.50 dB -20.35 dB 3:51 10-Fux: Orfeo ed Euridice, K. 309: Aria. Rondinella, che tal volta
DR13 -1.07 dB -20.69 dB 9:22 11-Fux: Il testamento di nostro Signor Gesù Cristo sul Calvario, K. 299: Aria. Si tempra il mio martir
––––––––––––––––––––––––––––––––––––––––

Number of tracks: 11
Official DR value: DR14

Samplerate: 96000 Hz
Channels: 2
Bits per sample: 24
Bitrate: 2461 kbps
Codec: FLAC
================================================================================



Thanks to the Original customer.