Marianne Crebassa - Oh, Boy! (2016)

Posted By: SERTiL
Marianne Crebassa - Oh, Boy! (2016)

Marianne Crebassa - Oh, Boy!
Classical | FLAC (tracks) 24-bit/96 kHz | 72:29 min | 1.22 GB | Digital booklet
Label: Erato/Warner Classics | Tracks: 16 | Rls.date: 2016

“One of the most important voices of our time,” is how the young French mezzo-soprano Marianne Crebassa is described by Marc Minkowski, the distinguished conductor for her debut album, Oh, Boy! Comprising arias for young male characters who are sung by a woman – the so-called ‘trouser roles’ – it offers an alluring programme of Mozart, Chabrier, Gluck, Gounod, Hahn, Massenet, Meyerbeer, Offenbach and Thomas. Crebassa – praised by Le Monde for her “incredibly beautiful timbre and transcendent presence” – shows why she has already made an impact at the Paris Opéra, La Scala, Milan, the Berlin Staatsoper and the Salzburg Festival.

When she sang at the Salzburg Festival in 2014, the Financial Times described Crebassa as “dazzling … with doe-eyed looks, the seductive innocence of Debussy’s Mélisande and a luscious voice that seems destined for Massenet’s Charlotte.” The New York Times has hailed her as “splendidly charismatic” and Die Welt has praised her “evenly produced, shimmering timbre”. Shortly after she graduated from the Conservatory of Montpellier, not far from her hometown of Béziers in southern France, Forum Opéra described her voice as “opulent and perfectly projected,” singling her out as “an artist we are sure to hear more about.”

TRACKLIST
01. Orphée et Eurydice, Wq. 41: Amour, viens rendre à mon âme
02. Lucio Silla, K. 135: Pupille amate
03. Les Huguenots: Nobles seigneurs, salut!
04. Les contes d'Hoffmann: Vois sous l'archet frémissant
05. Lucio Silla, K. 135: Dunque sperar poss'io… Il tenero momento
06. Le nozze di Figaro, K. 492: Voi che sapete
07. Psyché: Non, ne la suivons pas… Sommeil, ami des dieux
08. Roméo et Juliette, CG 9: Depuis hier… Que fais-tu, blanche tourterelle
09. Cendrillon: Allez, laissez-moi seul… Coeur sans amour, printemps sans roses
10. Fantasio: Voyez dans la nuit brune
11. Faust, CG 4: Versez vos chagrins dans mon âme
12. La finta giardiniera, K. 196: Va' pure ad altri in braccio
13. L'étoile: Ô petite étoile
14. Le nozze di Figaro, K. 492: Non so più
15. Mozart: Un jour de plus… Alors, adieu donc, mon amour!
16. La clemenza di Tito, K. 621: Parto, ma tu ben mio

foobar2000 1.3.7 / Замер динамического диапазона (DR) 1.1.1
Дата отчёта: 2016-11-12 16:36:11

––––––––––––––––––––––––––––––––––––––––
Анализ: Marianne Crebassa/Christoph Zimper/Mozarteum Orchester Salzburg / Oh, Boy! (1)
Marianne Crebassa/Mozarteum Orchester Salzburg / Oh, Boy! (2-16)
––––––––––––––––––––––––––––––––––––––––

DR Пики RMS Продолжительность трека
––––––––––––––––––––––––––––––––––––––––
DR13 -1.95 дБ -19.77 дБ 6:27 16-La clemenza di Tito, K. 621, Act 1: 'Parto, ma tu ben mio' (Sesto)
DR11 -0.50 дБ -16.40 дБ 5:47 1-Gluck / Arr Berlioz: Orphée et Eurydice, Wq. 41, Act 1: 'Amour, viens rendre à mon âme' (Orphée)
DR13 -1.97 дБ -19.62 дБ 4:16 2-Lucio Silla, K. 135, Act 3: 'Pupille amate' (Cecilio)
DR11 -0.37 дБ -17.44 дБ 4:04 3-Les Huguenots, Act 1: 'Nobles seigneurs, salut!' (Urbain)
DR11 -0.44 дБ -17.41 дБ 3:56 4-Les Contes d'Hoffmann, Act 4: 'Vois sous l'archet frémissant' (Nicklausse)
DR12 -0.49 дБ -16.99 дБ 10:19 5-Lucio Silla, K. 135, Act 1: 'Dunque sperar poss'io… Il tenero momento' (Cecilio)
DR11 -1.81 дБ -19.25 дБ 2:43 6-Le nozze di Figaro, K. 492, Act 2: 'Voi che sapete' (Cherubino)
DR13 -5.59 дБ -24.56 дБ 4:22 7-Psyché, Act 2: 'Non, ne la suivons pas… Sommeil, ami des dieux' (Eros)
DR12 -0.15 дБ -18.40 дБ 4:03 8-Roméo et Juliette, CG 9, Act 3: 'Depuis hier… Que fais-tu, blanche tourterelle ' (Stéphano)
DR12 -0.56 дБ -18.15 дБ 4:30 9-Cendrillon, Act 2: 'Allez, laissez-moi seul… Coeur sans amour, printemps sans roses' (Le Prince Charmant)
DR14 -0.69 дБ -21.51 дБ 4:16 10-Fantasio, Act 1: 'Voyez dans la nuit brune' (Fantasio)
DR13 -1.94 дБ -21.75 дБ 3:18 11-Faust, Act 4: 'Versez vos chagrins dans mon âme' (Siébel)
DR12 -0.48 дБ -15.63 дБ 3:22 12-La finta giardiniera, K. 196, Act 3: 'Va' pure ad altri in braccio' (Ramiro)
DR12 -1.88 дБ -21.57 дБ 4:01 13-L'Étoile, Act 1: 'Ô petite étoile' (Lazuli)
DR13 -0.55 дБ -17.76 дБ 2:51 14-Le nozze di Figaro, K. 492, Act 1: 'Non so più' (Cherubino)
DR15 -0.77 дБ -24.17 дБ 4:22 15-Mozart, Act 3: 'Un jour de plus… Alors, adieu donc, mon amour!' (Mozart)
––––––––––––––––––––––––––––––––––––––––

Количество треков: 16
Реальные значения DR: DR12

Частота: 96000 Гц
Каналов: 2
Разрядность: 24
Битрейт: 2311 кбит/с
Кодек: FLAC
================================================================================


Thanks to the Original customer.