Marion Cotillard - Honegger: Jeanne d'Arc au bûcher (2015) [Official Digital Download]

Posted By: SERTiL
Marion Cotillard - Honegger: Jeanne d'Arc au bûcher (2015) [Official Digital Download]

Orquestra Simfònica de Barcelona i Nacional de Catalunya, Marc Soustrot, Marion Cotillard - Honegger: Jeanne d'Arc au bûcher (2015)
FLAC (tracks) 24-bit/48 kHz | Time - 75:04 minutes | 719 MB
Studio Master, Official Digital Download | Artwork: Digital Booklet

By Swiss composer Arthur Honegger, “Jeanne d'Arc au Bûcher” (1938) is an imposing oratorio. Unlike other banal versions of the myth, the libretto is a highly original creation by French poet and playwright Paul Claudel, who perfectly dramatises the last moments of the martyr's life. Honegger highlights all the anguish and tension of Joan's interrogation and subsequent execution. Originally written for actress Ida Rubinstein, an excellent ballerina and actress who was the first to perform the part, the oratorio is written as a flashback in which Joan recalls her life, just before she dies.

This time, Oscar-winning French actress Marion Cotillard will be giving her very first French stage performance, playing the lead role with a passion that has already won her the awe of audiences and critics overseas. As a great film composer, Honegger creates visually evocative ambiances and fills the orchestra with new sounds (saxophones, ondes Martenot). The initial prologue to the piece was added in 1944 as a symbol of the resistance during the Nazi occupation of France: again, Joan goes beyond her own story.

Tracklist:

Arthur Honegger (1892 - 1955)

01. Jeanne d'Arc au bûcher: Prologue
02. Jeanne d'Arc au bûcher, Scène I: Les voix du ciel
03. Jeanne d'Arc au bûcher, Scène II: Le livre
04. Jeanne d'Arc au bûcher, Scène III: Les voix de la terre
05. Jeanne d'Arc au bûcher, Scène IV: Jeanne livrée aux bêtes
06. Jeanne d'Arc au bûcher, Scène V: Jeanne au poteau
07. Jeanne d'Arc au bûcher, Scène VI: Les Rois, ou l'invention du jeu de cartes
08. Jeanne d'Arc au bûcher, Scène VII: Catherine et Marguerite
09. Jeanne D'Arc Au Bûcher, Scène VIII: Le Roi Qui Va-T-À Rheims
10. Jeanne d'Arc au bûcher, Scène IX: L'épée de Jeanne
11. Jeanne d'Arc au bûcher, Scène X: Trimazo
12. Jeanne d'Arc au bûcher, Scène XI: Jeanne d'Arc en flammes

Personnel:
Marion Cotillard (Jeanne d’Arc)
Xavier Gallais (Brother Dominique)
Yann Beuron (A voice, Porcus, Herald I, Chaplain)
Maria Hinojosa (The Virgin)
Marta Almajano (Marguerite)
Aude Extrémo (Catherine)
Anna Moreno-Lasalle (Mother of Barrels)
Eric Martin-Bonnet (A voice, Herald II, Peasant)
Carles Romero Vidal (Herald, the ass, Bedford, J. de Luxembourg, Grinder Trusty, Peasant)
Pep Planas (The Usher, R. de Chartres, G. de Flavy, Perrot, Priest)
Lieder Càmera choir
Madrigal choir
Barcelona Symphony and Catalonia National Orchestra
Marc Soustrot, conductor

foobar2000 1.3.7 / Dynamic Range Meter 1.1.1
log date: 2017-12-27 22:47:16

––––––––––––––––––––––––––––––––––––––––
Analyzed: Orquestra Simfònica Barcelona i Nacional Catalunya, Marc Soustrot, Carles Romero Vidal, Eric Martin-Bonnet, Marion Cotillard, Pep Planas, Madrigal Choir, Lieder Càmera Choir / Honegger: Jeanne d'Arc au bûcher (1)
Orquestra Simfònica Barcelona i Nacional Catalunya, Marc Soustrot, Carles Romero Vidal, Pep Planas, Madrigal Choir, Lieder Càmera Choir, Yann Beuron, Marion Cotillard / Honegger: Jeanne d'Arc au bûcher (2)
Orquestra Simfònica Barcelona i Nacional Catalunya, Marc Soustrot, Madrigal Choir, Lieder Càmera Choir, Cor Vivaldi - Petits Cantors Catalunya, Anna Moreno-Lasalle, Yann Beuron, Eric Martin-Bonnet, Pep Planas, Marion Cotillard, Xavier Gallais / Honegger: Jeanne d'Arc au bûcher (3)
Orquestra Simfònica Barcelona i Nacional Catalunya, Marc Soustrot, Madrigal Choir, Lieder Càmera Choir / Honegger: Jeanne d'Arc au bûcher (4)
Orquestra Simfònica Barcelona i Nacional Catalunya, Marc Soustrot, Maria Hinojosa, Marion Cotillard, Lieder Càmera Choir, Madrigal Choir, Pep Planas, Marta Almajano, AuExtrémo / Honegger: Jeanne d'Arc au bûcher (5)
Orquestra Simfònica Barcelona i Nacional Catalunya, Marc Soustrot, Marion Cotillard, Xavier Gallais, AuExtrémo, Marta Almajano / Honegger: Jeanne d'Arc au bûcher (6)
Orquestra Simfònica Barcelona i Nacional Catalunya, Marc Soustrot, Marion Cotillard, Xavier Gallais / Honegger: Jeanne d'Arc au bûcher (7-8)
Orquestra Simfònica Barcelona i Nacional Catalunya, Marc Soustrot, Marion Cotillard / Honegger: Jeanne d'Arc au bûcher (9)
Orquestra Simfònica Barcelona i Nacional Catalunya, Marc Soustrot, Marta Almajano, Marion Cotillard, Xavier Gallais, Cor Vivaldi - Petits Cantors Catalunya, Madrigal Choir, Lieder Càmera Choir / Honegger: Jeanne d'Arc au bûcher (10)
Orquestra Simfònica Barcelona i Nacional Catalunya, Marc Soustrot, Xavier Gallais, Marion Cotillard, Madrigal Choir, Lieder Càmera Choir / Honegger: Jeanne d'Arc au bûcher (11-12)
––––––––––––––––––––––––––––––––––––––––

DR Peak RMS Duration Track
––––––––––––––––––––––––––––––––––––––––
DR18 -3.36 dB -28.18 dB 5:34 07-Jeanne d'Arc au bûcher, Scène VI: Les Rois, ou l'invention du jeu de cartes
DR15 -0.23 dB -22.12 dB 8:30 05-Jeanne d'Arc au bûcher, Scène IV: Jeanne livrée aux bêtes
DR16 -0.68 dB -24.07 dB 12:00 09-Jeanne D'Arc Au Bûcher, Scène VIII: Le Roi Qui Va-T-À Rheims
DR16 -2.80 dB -26.86 dB 2:19 02-Jeanne d'Arc au bûcher, Scène I: Les voix du ciel
DR14 -0.28 dB -19.81 dB 10:54 12-Jeanne d'Arc au bûcher, Scène XI: Jeanne d'Arc en flammes
DR15 -0.42 dB -23.36 dB 2:37 08-Jeanne d'Arc au bûcher, Scène VII: Catherine et Marguerite
DR17 -2.34 dB -27.58 dB 7:25 01-Jeanne d'Arc au bûcher: Prologue
DR18 -3.93 dB -29.91 dB 3:17 06-Jeanne d'Arc au bûcher, Scène V: Jeanne au poteau
DR14 -22.32 dB -41.49 dB 0:44 11-Jeanne d'Arc au bûcher, Scène X: Trimazo
DR19 -0.52 dB -28.05 dB 14:34 10-Jeanne d'Arc au bûcher, Scène IX: L'épée de Jeanne
DR13 -22.30 dB -41.84 dB 3:30 03-Jeanne d'Arc au bûcher, Scène II: Le livre
DR16 -0.20 dB -23.05 dB 3:44 04-Jeanne d'Arc au bûcher, Scène III: Les voix de la terre
––––––––––––––––––––––––––––––––––––––––

Number of tracks: 12
Official DR value: DR16

Samplerate: 48000 Hz
Channels: 2
Bits per sample: 24
Bitrate: 1431 kbps
Codec: FLAC
================================================================================


Thanks to the Original customer.