Subcategories

Martin Fröst - Roots (2016) [Official Digital Download 24/96]

Posted By: SERTiL
Martin Fröst - Roots (2016) [Official Digital Download 24/96]

Martin Fröst - Roots (2016)
FLAC (tracks) 24-bit/96 kHz | Time - 62:54 minutes | 1.10 GB
Studio Master, Official Digital Download | Artwork: Digital booklet

The stunning new recording and concert program created by Martin features a kaleidoscope of repertoire ranging 2000 years, tracing the evolution of music through a continuous soundscape. ”The listener will search long and hard to find works and performances like these in which folk music, a religious atmosphere and an avant-garde technique are combined to create such inspired music for our age” writes Wolfgang Sander of the Frankfurter Allgemeine Zeitung in the booklet note.

Describing the program – in which Martin features as both soloist and conductor – he comments “My sound-world journey travels through the sources of classical repertoire, and draws a line from the earliest “roots” of music—music inspired by dance and folk, music drawn from sacred rituals of praise, and music as pure entertainment—and explores how, from these roots, we can open up a new musical door into the future. My journey moves from Gregorian chant, Hildegard von Bingen and Telemann, via gypsy, klezmer and traditional folk music from a variety of countries, all the way through to new works and re-workings of classical pieces… I wanted to give the feeling that, by listening to this program its like walking through from one room to the next and suddenly you are in a totally different sound world – that idea turns me on.”

Roots refers not only to the origins of classical music in religious music and folk music but also to the very personal roots of Martin himself. The final track is a setting of the beautiful and simple Scandinavian folksong Jag vet en dejlig rosa (I know a rose so comely) which comes from Dalarna in the heart of Sweden

TRACKLIST

Hildegard von Bingen (1098-1179)

1 Ancient Suite 03:32

Georg Philipp Telemann (1681-1767)

Concerto for Recorder, Transverse Flute, Strings and Continuo in E Mino
2 IV. Presto 02:29

Göran Fröst (1974)

3 Klezmer Dance No. 2 03:54

Traditional
4 Psalm från Älvdals-Åsen 03:16

Bernhard Henrik Crusell (1775-1838)

5 Introduction and Variations on a Swedish Song for Clarinet and Orchestra, Op. 12 09:38

Johannes Brahms (1833-1897)

6 Hungarian Dance No. 14 in D Minor 02:37

Robert Schumann (1810-1856)

5 Stücke im Volkston
7 I. Mit Humor (Vanitas vanitatum) 02:57
8 II. Langsam 03:10
9 V. Stark und markiert 02:39

Béla Bartók (1881-1945)

10 II. Sash Dance 00:50
11 III. In One Spot 02:35
12 IV. Dance from Bucium 02:08
13 V. Romanian Polka 00:41
14 VI. Fast Dance 00:58

Manuel de Falla (1876-1946)

15 Nana 02:09

Traditional
16 Jag vet en dejlig rosa 04:52

Anders Hillborg (1954)

17 Primal Blues 01:20

Traditional
18 Rolig Pers Polska 04:19

Anders Hillborg (1954)

19 Hymn of Echoes 02:27

Astor Piazzolla (1921-1992)

20 La muerte del ángel 03:33

Georgs Pelecis (1947)

21 All in the Past 02:56

PERSONNEL
Martin Fröst, clarinet
Adolf Fredriks Girls Choir
Royal Stockholm Philharmonic Orchestra

foobar2000 1.3.7 / Dynamic Range Meter 1.1.1
log date: 2017-08-19 15:23:02

––––––––––––––––––––––––––––––––––––––––
Analyzed: Martin Fröst;Royal Stockholm Philharmonic Orchestra / Roots (1-18)
Martin Fröst / Roots (19-21)
––––––––––––––––––––––––––––––––––––––––

DR Peak RMS Duration Track
––––––––––––––––––––––––––––––––––––––––
DR11 -1.05 dB -16.50 dB 2:30 02-Concerto for Recorder, Transverse Flute, Strings and Continuo in E Minor: IV. Presto
DR12 -1.87 dB -17.96 dB 3:54 03-Klezmer Dance No. 2
DR13 -0.71 dB -20.64 dB 3:16 04-Psalm från Älvdals-Åsen
DR12 -0.20 dB -16.52 dB 9:38 05-Introduction and Variations on a Swedish Song for Clarinet and Orchestra, Op. 12
DR10 -1.30 dB -16.67 dB 2:37 06-Hungarian Dances, WoO 1: No. 14 in D Minor
DR12 -1.84 dB -18.55 dB 2:57 07-5 Stücke im Volkston, Op. 102: 5 Stücke im Volkston, Op. 102: I. Mit Humor ("Vanitas vanitatum")
DR10 -6.67 dB -20.81 dB 3:10 08-5 Stücke im Volkston, Op. 102: 5 Stücke im Volkston, Op. 102: II. Langsam
DR11 -2.23 dB -17.09 dB 2:39 09-5 Stücke im Volkston, Op. 102: V. Stark und markiert
DR11 -5.49 dB -19.64 dB 0:50 10-Romanian Folk Dances Sz. 56: Romanian Folk Dances Sz. 56: II. Sash Dance
DR12 -1.67 dB -19.28 dB 2:35 11-Romanian Folk Dances Sz. 56: Romanian Folk Dances Sz. 56: III. In One Spot
DR10 -2.61 dB -16.93 dB 2:08 12-Romanian Folk Dances Sz. 56: IV. Dance from Bucium
DR10 -3.77 dB -17.32 dB 0:41 13-Romanian Folk Dances Sz. 56: Romanian Folk Dances Sz. 56: V. Romanian Polka
DR11 -1.27 dB -14.83 dB 0:58 14-Romanian Folk Dances Sz. 56: Romanian Folk Dances Sz. 56: VI. Fast Dance
DR8 -9.41 dB -22.60 dB 2:09 15-Nana
DR11 -3.79 dB -21.79 dB 4:52 16-Jag vet en dejlig rosa
DR11 -3.72 dB -18.26 dB 4:21 18-Rolig Pers Polska
DR11 -0.20 dB -14.39 dB 3:33 20-La muerte del ángel
DR10 -7.79 dB -23.95 dB 2:56 21-All in the Past
DR13 -0.72 dB -18.92 dB 3:30 01-Ancient Suite
DR12 -5.20 dB -21.06 dB 1:19 17-Primal Blues
DR12 -6.14 dB -23.23 dB 2:28 19-Hymn of Echoes
––––––––––––––––––––––––––––––––––––––––

Number of tracks: 21
Official DR value: DR11

Samplerate: 96000 Hz
Channels: 2
Bits per sample: 24
Bitrate: 2393 kbps
Codec: FLAC
================================================================================


Thanks to the Original customer.