Matthieu Gonet - Santa & Cie (Bande originale du film) (2017) [Official Digital Download]

Posted By: Pisulik
Matthieu Gonet - Santa & Cie (Bande originale du film) (2017) [Official Digital Download]

Matthieu Gonet - Santa & Cie (Bande originale du film) (2017)
FLAC (tracks) 24-bit/44.1 kHz | Time - 31:09 minutes | 325 MB
Studio Master, Official Digital Download | Artwork: Front cover

Pianist, conductor, composer and arranger, Matthieu Gonet is admitted at the age of 14 to the National Conservatory of Music and Dance in Paris. He accompanies many artists such as Johnny Hallyday, Phil Collins, Céline Dion, Liane Foly and Patrick Bruel as pianist or philharmonic orchestra conductors. He is the musical director of Xavier Gens' feature film "Hitman". "A Christmas tale" by Arnaud Desplechin before writing his own soundtracks in 2012: "Stop Me" by Jean-Paul Lilienfeld and "Dead Man Talking" by Patrick Ridremont. Matthieu Gonet meets Alain Chabat for his new comedy "Santa & Cie" and succeeds Philippe Chany, Frédéric Talgorn and Bruno Coulais in the filmography of the director.

Tracklist:

01. Quelque part sous la neige
02. Santa & Cie
03. Dans la factory
04. Magnus ne comprend pas
05. Tic-Tac-Toy March
06. Les lutins malades
07. Preparation du traineau
08. Au debut du voyage
09. C'est le vrai pere Noel
10. Le renne des neiges
11. Le pere Noel est sur le toit
12. Le temps qui passe
13. Jay et Thomas
14. Les enfants
15. Barbara
16. Le cauchemar de Santa
17. Retour case prison
18. S'echapper
19. Poursuite dans Paris
20. Confession de Thomas
21. Des jouets a livrer
22. Apparition du traineau
23. En volant sur Paris
24. Les Champs-Elysees
25. Home
26. Le sapin magique
27. Nuit de Noel
28. Santa et Wanda

foobar2000 1.3.7 / Dynamic Range Meter 1.1.1
log date: 2017-12-03 02:56:37

––––––––––––––––––––––––––––––––––––––––
Analyzed: Matthieu Gonet / Santa & Cie (Bande originale du film)
––––––––––––––––––––––––––––––––––––––––

DR Peak RMS Duration Track
––––––––––––––––––––––––––––––––––––––––
DR12 -2.06 dB -19.92 dB 1:50 01-Quelque part sous la neige
DR9 -0.16 dB -11.72 dB 1:21 02-Santa & Cie
DR11 -0.19 dB -14.49 dB 1:26 03-Dans la factory
DR10 -1.21 dB -17.28 dB 0:37 04-Magnus ne comprend pas
DR10 -0.18 dB -12.22 dB 0:57 05-Tic-Tac-Toy March
DR11 -0.03 dB -15.59 dB 1:50 06-Les lutins malades
DR9 -0.18 dB -14.31 dB 0:37 07-Preparation du traineau
DR10 -0.07 dB -13.55 dB 2:42 08-Au debut du voyage
DR10 -0.15 dB -15.48 dB 0:29 09-C'est le vrai pere Noel
DR8 -0.06 dB -11.06 dB 0:55 10-Le renne des neiges
DR9 -1.95 dB -18.18 dB 0:36 11-Le pere Noel est sur le toit
DR9 -0.20 dB -12.69 dB 0:42 12-Le temps qui passe
DR10 -0.19 dB -15.49 dB 0:36 13-Jay et Thomas
DR13 -4.91 dB -24.51 dB 0:36 14-Les enfants
DR11 -0.23 dB -17.18 dB 0:29 15-Barbara
DR8 -0.17 dB -12.87 dB 1:09 16-Le cauchemar de Santa
DR9 -0.18 dB -13.52 dB 0:24 17-Retour case prison
DR8 -0.14 dB -11.46 dB 0:35 18-S'echapper
DR10 0.00 dB -11.30 dB 0:59 19-Poursuite dans Paris
DR9 -2.23 dB -19.72 dB 0:48 20-Confession de Thomas
DR10 0.00 dB -13.32 dB 1:26 21-Des jouets a livrer
DR10 -0.15 dB -16.62 dB 0:52 22-Apparition du traineau
DR10 0.00 dB -12.52 dB 1:01 23-En volant sur Paris
DR8 0.00 dB -10.41 dB 0:46 24-Les Champs-Elysees
DR8 -0.54 dB -13.58 dB 0:55 25-Home
DR8 -0.04 dB -12.43 dB 3:48 26-Le sapin magique
DR10 -0.19 dB -16.00 dB 1:48 27-Nuit de Noel
DR10 -3.90 dB -19.75 dB 0:56 28-Santa et Wanda
––––––––––––––––––––––––––––––––––––––––

Number of tracks: 28
Official DR value: DR10

Samplerate: 44100 Hz
Channels: 2
Bits per sample: 24
Bitrate: 1363 kbps
Codec: FLAC
================================================================================


All thanks go to the original releaser