Michał Gondko - Polonica (Renaissance Lute, ca 1600) (2015) [Official Digital Download 24/88]

Posted By: SERTiL
Michał Gondko - Polonica (Renaissance Lute, ca 1600) (2015) [Official Digital Download 24/88]

Michał Gondko - Polonica (Renaissance Lute, ca 1600) (2015)
FLAC (tracks) 24-bit/88.2 kHz | Time - 70:28 minutes | 1.17 GB
Studio Master, Official Digital Download | Artwork: Digital Booklet

In addition to the works attributed to the lutenists active at the Royal Polish court in the late sixteenth century, there is a substantial repertoire of compositions identified as ‘Polish dances’ or ‘Polish songs’ which have been preserved in numerous sources of late Renaissance lute music. Characterized by an irresistible melodic charm and a straightforward harmonic and rhythmical texture, such musical polonica spread across Europe, achieving what might have been the widest distribution of musical ‘Polishness’ before Chopin. Four hundred years later, Polish lutenist Michal Gondko sets out to trace polonica in lute tablatures from around 1600, and presents a selection of forty compositions, many of which have not been previously recorded.

Tracklist:
01. Chorea eiusdem nationis
02. Chorea polonica I
03. Chorea polonica eiusdem authoris
04. Cantio polonica
05. Polnischer Tantz I
06. Polnischer Tantz II
07. Polnischer Tantz III
08. Polnischer Tantz IV
09. Polnischer Tantz V
10. Villanella AD
11. Villanella polonica
12. Finale Alberti Dlugorai
13. Chorea polonica II
14. Chorea polonica III
15. Chorea polonica IV
16. Fantasia AD
17. Polskey tanecz welmy pekney
18. Polnisch Tantz
19. Ein Pol[n]ischer Tantz (Bathori)
20. Praeludium Diomedis
21. Galliarda di Diomede
22. Danza
23. Caspari Poloni Gagliarda
24. Fantasia Alberti Dlugorai Poloni
25. A Pollish Vilanell
26. A Polish Ayre
27. Ballo Polaco
28. Chorea polonica Mowi na mie sasiada
29. Ein polnischer Tantz (Zuzanneczko)
30. Chançon a la Polonnoise Susannesco
31. Autre Taned Spolski
32. Balletto Polacho I
33. Balletto Polacho II
34. Balletto Polacho III
35. Balletto Polacho IV
36. Balletto Polacho V
37. Allemande (Bathori)
38. Taned Spolski
39. Galliarda eiusdem authoris
40. Fantasia Iacobi Reys

Composers:
Cato, Diomedes (c.1560-c.1618)
Dlugoraj, Wojciech (Albertus) (1557-c.1619)

Personnel:
Michal Gondko (renaissance lute)

foobar2000 1.3.7 / Dynamic Range Meter 1.1.1
log date: 2018-01-18 13:21:34

––––––––––––––––––––––––––––––––––––––––
Analyzed: Michał Gondko / Polonica (Renaissance Lute, ca 1600)
––––––––––––––––––––––––––––––––––––––––

DR Peak RMS Duration Track
––––––––––––––––––––––––––––––––––––––––
DR14 -5.64 dB -24.98 dB 1:36 01-Chorea eiusdem nationis
DR15 -4.95 dB -23.80 dB 0:59 02-Chorea polonica I
DR15 -3.95 dB -25.10 dB 0:46 03-Chorea polonica eiusdem authoris
DR15 -4.89 dB -24.89 dB 1:18 04-Cantio polonica
DR13 -4.45 dB -22.27 dB 1:11 05-Polnischer Tantz I
DR14 -5.22 dB -23.70 dB 2:00 06-Polnischer Tantz II
DR13 -6.42 dB -22.35 dB 1:15 07-Polnischer Tantz III
DR16 -4.26 dB -25.39 dB 1:40 08-Polnischer Tantz IV
DR15 -6.10 dB -25.71 dB 2:32 09-Polnischer Tantz V
DR16 -6.01 dB -26.14 dB 2:48 10-Villanella AD
DR15 -5.66 dB -24.05 dB 1:39 11-Villanella polonica
DR13 -6.29 dB -23.45 dB 0:57 12-Finale Alberti Dlugorai
DR14 -4.39 dB -20.93 dB 1:01 13-Chorea polonica II
DR15 -3.70 dB -23.81 dB 2:23 14-Chorea polonica III
DR14 -3.90 dB -22.07 dB 2:38 15-Chorea polonica IV
DR15 -3.72 dB -23.54 dB 1:58 16-Fantasia AD
DR15 -3.45 dB -22.38 dB 2:40 17-Polskey tanecz welmy pekney
DR15 -6.85 dB -25.59 dB 1:19 18-Polnisch Tantz
DR15 -4.32 dB -22.18 dB 3:24 19-Ein Pol[n]ischer Tantz (Bathori)
DR13 -7.86 dB -24.56 dB 1:46 20-Praeludium Diomedis
DR14 -5.28 dB -22.36 dB 1:34 21-Galliarda di Diomede
DR14 -7.09 dB -24.35 dB 2:46 22-Danza
DR15 -4.43 dB -21.72 dB 1:47 23-Caspari Poloni Gagliarda
DR14 -6.78 dB -24.72 dB 2:04 24-Fantasia Alberti Dlugorai Poloni
DR15 -8.28 dB -26.91 dB 1:49 25-A Pollish Vilanell
DR13 -4.49 dB -24.33 dB 0:59 26-A Polish Ayre
DR14 -7.60 dB -24.47 dB 1:25 27-Ballo Polaco
DR16 -5.43 dB -24.54 dB 1:05 28-Chorea polonica Mowi na mie sasiada
DR14 -6.75 dB -25.44 dB 1:37 29-Ein polnischer Tantz (Zuzanneczko)
DR14 -8.03 dB -24.83 dB 1:37 30-Chançon a la Polonnoise Susannesco
DR13 -4.98 dB -22.71 dB 0:53 31-Autre Taned Spolski
DR15 -6.17 dB -25.23 dB 2:50 32-Balletto Polacho I
DR14 -4.04 dB -20.70 dB 1:13 33-Balletto Polacho II
DR15 -2.86 dB -24.06 dB 2:05 34-Balletto Polacho III
DR15 -3.53 dB -21.59 dB 2:03 35-Balletto Polacho IV
DR15 -5.11 dB -24.56 dB 1:54 36-Balletto Polacho V
DR14 -3.96 dB -22.35 dB 1:16 37-Allemande (Bathori)
DR14 -4.25 dB -21.87 dB 2:10 38-Taned Spolski
DR14 -3.85 dB -22.93 dB 1:40 39-Galliarda eiusdem authoris
DR14 -3.67 dB -22.45 dB 2:15 40-Fantasia Iacobi Reys
––––––––––––––––––––––––––––––––––––––––

Number of tracks: 40
Official DR value: DR14

Samplerate: 88200 Hz
Channels: 2
Bits per sample: 24
Bitrate: 2343 kbps
Codec: FLAC
================================================================================


Thanks to the Original customer.