Mikael Ayrapetyan - Spendiarov - Complete Piano Works & Chamber Works with Piano (2021) [Official Digital Download]

Posted By: pyatak
Mikael Ayrapetyan - Spendiarov - Complete Piano Works & Chamber Works with Piano (2021) [Official Digital Download]

Mikael Ayrapetyan - Spendiarov - Complete Piano Works & Chamber Works with Piano (2021) [Official Digital Download]
FLAC (tracks) 24-bit/48 kHz | Front Cover | Time - 02:10:39 minutes | 1,22 GB
Classical Label: Grand Piano, Official Digital Download

ALEXANDER AFANASYEVICH SPENDIAROV (SPENDIARIAN) was a student of Rimsky-Korsakov and a close friend of Glazunov who wrote that he was a musician with an impeccable, widely versatile technique. Spendiarovs music combines Russian and Armenian elements and is saturated in folkloric influence and he vitally enriched the expressive range of Armenian music as a composer, pedagogue and champion of his contemporaries. His piano works, both for solo instrument and for chamber forces, show the range of his gifts, not least his romances and lullabies, and range across his entire compositional life. Spendiarovs songs, heard here in piano transcriptions by Villy Sargsyan, perfectly preserve the unique timbres and textures of these works. MIKAEL AYRAPETYAN is a pianist, composer and producer. He is also the founder and artistic director of the music project Secrets of Armenia, which aims to increase international awareness of Armenian classical music, and actively organizes concerts featuring Armenian music in venues around the world, for which he is producer, artistic director and pianist. Born in 1984 in Yerevan, Armenia, he studied at the Moscow Tchaikovsky State Conservatory, and continues to uphold the performing traditions of the Russian piano school, of which Konstantin Igumnov, Samuel Feinberg and Lev Oborin are luminaries. His repertoire ranges from the Baroque to the contemporary and includes rarely performed works by Armenian composers. His recording of Eduard Bagdasarians piano and violin music [GP664] earned a five-star rating from International Piano, and his album of Haro Stepanians 24 Preludes [GP760] was praised as a discovery by both Classica and Piano News.

TRACKLIST

1. Mikael Ayrapetyan - Yerevan Études, Op. 30 (Version for Piano) No. 1, Heydari
2. Mikael Ayrapetyan - Yerevan Études, Op. 30 (Version for Piano) No. 2, Gidzhas
3. Mikael Ayrapetyan - Crimean Sketches, Op. 9 (Version for Piano) No. 1, Air de danse
4. Mikael Ayrapetyan - Crimean Sketches, Op. 9 (Version for Piano) No. 2, Chanson élégiaque
5. Mikael Ayrapetyan - Crimean Sketches, Op. 9 (Version for Piano) No. 3, Chanson à boire
6. Mikael Ayrapetyan - Crimean Sketches, Op. 9 (Version for Piano) No. 4, Air de danse Khaytarma
7. Mikael Ayrapetyan - Waltz in B-Flat Major
8. Mikael Ayrapetyan - Waltz in E-Flat Major
9. Mikael Ayrapetyan - Scherzo in D Major
10. Mikael Ayrapetyan - Menuet & Trio, Op. 3 No. 1 (Version for Piano)
11. Mikael Ayrapetyan - Barcarolle in G Minor
12. Mikael Ayrapetyan - Crimean Sketches, Op. 9 No. 4, Air de danse Khaytarma (Version for Piano with Introduction)
13. Mikael Ayrapetyan - Berceuse, Op. 3 No. 2 (Version for Piano)
14. Mikael Ayrapetyan - Menuette in D Minor
15. Mikael Ayrapetyan - Brave Warriors, Op. 26
16. Mikael Ayrapetyan - Folk Song, Dance and Khaytarma No. 1, Folk Song
17. Mikael Ayrapetyan - Folk Song, Dance and Khaytarma No. 2, Dance - No. 3, Khaytarma
18. Vladimir Sergeev & Mikael Ayrapetyan - Waltz in E Minor for Violin & Piano
19. Vladimir Sergeev & Mikael Ayrapetyan - Folk Song for Violin & Piano
20. Vladimir Sergeev & Mikael Ayrapetyan - Romance for Violin & Piano
21. Vladimir Sergeev & Mikael Ayrapetyan - Lullaby for Violin & Piano
22. Vladimir Sergeev & Mikael Ayrapetyan - Melody for Violin & Piano
23. Vladimir Sergeev & Mikael Ayrapetyan - Canzonetta in D Major for Violin & Piano
24. Vladimir Sergeev & Mikael Ayrapetyan - Crimean Sketches, Op. 9 No. 4, Air de danse Khaytarma (Arr. for Violin & Piano)
25. Demian Fokin & Mikael Ayrapetyan - Romance in F Major for Cello & Piano
26. Demian Fokin & Mikael Ayrapetyan - Romance in G Minor for Cello & Piano
27. Demian Fokin & Mikael Ayrapetyan - Barcarolle in G Major for Cello & Piano
28. Demian Fokin & Mikael Ayrapetyan - Barcarolle in G Minor for Cello & Piano
29. Mikael Ayrapetyan, Yulia Ayrapetyan, Vladimir Sergeev, Demian Fokin - To the Rose, Op. 1 No. 3 (Arr. V. Sarkisyan for Piano)
30. Mikael Ayrapetyan, Yulia Ayrapetyan, Vladimir Sergeev, Demian Fokin - Eastern Lullaby, Op. 5 No. 2 (Arr. V. Sarkisyan for Piano)
31. Mikael Ayrapetyan, Yulia Ayrapetyan, Vladimir Sergeev, Demian Fokin - Do Not Weep, O Nightingale, Op. 22 No. 2 (Arr. V. Sarkisyan for Piano)
32. Mikael Ayrapetyan, Yulia Ayrapetyan, Vladimir Sergeev, Demian Fokin - Lullaby, Op. 25 No. 1 (Arr. V. Sarkisyan for Piano)
33. Mikael Ayrapetyan, Yulia Ayrapetyan, Vladimir Sergeev, Demian Fokin - Garib blbul (Arr. V. Sarkisyan for Piano)
34. Mikael Ayrapetyan, Yulia Ayrapetyan, Vladimir Sergeev, Demian Fokin - To the Beloved (Arr. V. Sarkisyan for Piano)
35. Mikael Ayrapetyan, Yulia Ayrapetyan, Vladimir Sergeev, Demian Fokin - La souris, Op. 23 No. 5 (Arr. V. Sarkisyan for Piano)
36. Mikael Ayrapetyan, Yulia Ayrapetyan, Vladimir Sergeev, Demian Fokin - Almast (Excerpts Arr. V. Sarkisyan for Piano) Dance of Maidens
37. Mikael Ayrapetyan, Yulia Ayrapetyan, Vladimir Sergeev, Demian Fokin - Almast (Excerpts Arr. V. Sarkisyan for Piano) Dance of Men
38. Mikael Ayrapetyan, Yulia Ayrapetyan, Vladimir Sergeev, Demian Fokin - Almast (Excerpts Arr. V. Sarkisyan for Piano) Persian March

foobar2000 1.6.1 / Dynamic Range Meter 1.1.1
log date: 2021-01-13 22:23:20

––––––––––––––––––––––––––––––––––––––––
Analyzed: Demian Fokin & Mikael Ayrapetyan / Spendiarov: Complete Piano Works & Chamber Works with Piano (1-4)
Mikael Ayrapetyan / Spendiarov: Complete Piano Works & Chamber Works with Piano (5-21)
Mikael Ayrapetyan, Yulia Ayrapetyan, Vladimir Sergeev, Demian Fokin / Spendiarov: Complete Piano Works & Chamber Works with Piano (22-31)
Vladimir Sergeev & Mikael Ayrapetyan / Spendiarov: Complete Piano Works & Chamber Works with Piano (32-38)
––––––––––––––––––––––––––––––––––––––––

DR Peak RMS Duration Track
––––––––––––––––––––––––––––––––––––––––
DR11 -4.92 dB -20.68 dB 3:32 25-Romance in F Major for Cello & Piano
DR12 -3.58 dB -21.13 dB 3:33 26-Romance in G Minor for Cello & Piano
DR12 -2.39 dB -18.50 dB 2:08 27-Barcarolle in G Major for Cello & Piano
DR12 -3.21 dB -19.59 dB 2:36 28-Barcarolle in G Minor for Cello & Piano
DR12 -0.23 dB -17.01 dB 7:29 01-Yerevan Études, Op. 30 (Version for Piano) No. 1, Heydari
DR12 -0.23 dB -16.43 dB 3:41 02-Yerevan Études, Op. 30 (Version for Piano) No. 2, Gidzhas
DR12 -0.24 dB -15.99 dB 2:12 03-Crimean Sketches, Op. 9 (Version for Piano) No. 1, Air de danse
DR13 -6.77 dB -24.24 dB 2:22 04-Crimean Sketches, Op. 9 (Version for Piano) No. 2, Chanson élégiaque
DR12 -0.24 dB -15.80 dB 1:48 05-Crimean Sketches, Op. 9 (Version for Piano) No. 3, Chanson à boire
DR11 -0.24 dB -15.57 dB 4:18 06-Crimean Sketches, Op. 9 (Version for Piano) No. 4, Air de danse Khaytarma
DR13 -0.28 dB -19.89 dB 3:41 07-Waltz in B-Flat Major
DR13 -0.24 dB -17.85 dB 5:20 08-Waltz in E-Flat Major
DR15 -0.66 dB -19.33 dB 2:52 09-Scherzo in D Major
DR14 -0.24 dB -19.27 dB 5:08 10-Menuet & Trio, Op. 3 No. 1 (Version for Piano)
DR13 -1.07 dB -21.08 dB 2:49 11-Barcarolle in G Minor
DR12 -0.24 dB -16.23 dB 3:40 12-Crimean Sketches, Op. 9 No. 4, Air de danse Khaytarma (Version for Piano with Introduction)
DR12 -8.28 dB -27.29 dB 3:17 13-Berceuse, Op. 3 No. 2 (Version for Piano)
DR13 -0.23 dB -16.22 dB 3:42 14-Menuette in D Minor
DR12 -0.23 dB -13.75 dB 6:24 15-Brave Warriors, Op. 26
DR13 -0.24 dB -18.73 dB 3:01 16-Folk Song, Dance and Khaytarma No. 1, Folk Song
DR10 -1.46 dB -14.88 dB 1:59 17-Folk Song, Dance and Khaytarma No. 2, Dance - No. 3, Khaytarma
DR12 -2.45 dB -18.77 dB 2:35 29-To the Rose, Op. 1 No. 3 (Arr. V. Sarkisyan for Piano)
DR13 -4.53 dB -21.55 dB 2:53 30-Eastern Lullaby, Op. 5 No. 2 (Arr. V. Sarkisyan for Piano)
DR13 -5.04 dB -22.30 dB 3:23 31-Do Not Weep, O Nightingale, Op. 22 No. 2 (Arr. V. Sarkisyan for Piano)
DR15 -3.86 dB -23.77 dB 5:05 32-Lullaby, Op. 25 No. 1 (Arr. V. Sarkisyan for Piano)
DR13 -0.46 dB -16.18 dB 2:54 33-Garib blbul (Arr. V. Sarkisyan for Piano)
DR12 -3.43 dB -21.16 dB 3:50 34-To the Beloved (Arr. V. Sarkisyan for Piano)
DR13 -1.22 dB -18.80 dB 2:51 35-La souris, Op. 23 No. 5 (Arr. V. Sarkisyan for Piano)
DR12 -1.57 dB -18.78 dB 2:24 36-Almast (Excerpts Arr. V. Sarkisyan for Piano) Dance of Maidens
DR11 -0.42 dB -14.58 dB 3:50 37-Almast (Excerpts Arr. V. Sarkisyan for Piano) Dance of Men
DR11 -0.43 dB -13.58 dB 4:51 38-Almast (Excerpts Arr. V. Sarkisyan for Piano) Persian March
DR12 -3.78 dB -19.24 dB 3:11 18-Waltz in E Minor for Violin & Piano
DR12 -2.38 dB -20.53 dB 2:22 19-Folk Song for Violin & Piano
DR12 -2.37 dB -18.65 dB 3:18 20-Romance for Violin & Piano
DR11 -1.50 dB -18.06 dB 3:12 21-Lullaby for Violin & Piano
DR12 -1.73 dB -18.99 dB 3:25 22-Melody for Violin & Piano
DR11 -3.21 dB -18.24 dB 2:09 23-Canzonetta in D Major for Violin & Piano
DR13 -0.20 dB -16.05 dB 4:16 24-Crimean Sketches, Op. 9 No. 4, Air de danse Khaytarma (Arr. for Violin & Piano)
––––––––––––––––––––––––––––––––––––––––

Number of tracks: 38
Official DR value: DR12

Samplerate: 48000 Hz
Channels: 2
Bits per sample: 24
Bitrate: 1510 kbps
Codec: FLAC
================================================================================



Thanks to the Original customer.