Miley Cyrus - Younger Now (2017) [Official Digital Download]

Posted By: Pisulik
Miley Cyrus - Younger Now (2017) [Official Digital Download]

Miley Cyrus - Younger Now (2017)
FLAC (tracks) 24-bit/44.1 kHz | Time - 41:16 minutes | 484 MB
Studio Master, Official Digital Download | Artwork: Front cover

Global superstar Miley Cyrus unveils her hugely anticipated new album, 'Younger Now!' Featuring the new single "Younger Now," with lyrics written by Miley Cyrus with music written & produced by Oren Yoel and Miley Cyrus, the hot new single is the first taste of Cyrus' upcoming album. The video for "Younger Now," directed by Diane Martel and co-directed by Cyrus, features the singer paying homage to Elvis, perfectly timed with the 40-year anniversary of his death. Cyrus has long professed her love and admiration for Elvis, who she considers to be one of her biggest inspirations.

In May, Cyrus released her single "Malibu." The music video has garnered almost 300 million views on VEVO and the song has generated 180 million streams and over 800K track sales worldwide. In celebration of Pride Month (June) Cyrus released her track "Inspired" which will also be included on 'Younger Now.' She performed "Inspired" at the One Love Manchester Benefit Concert and recorded the song in her hometown of Nashville, TN. Miley made a donation to her foundation, the Happy Hippie Foundation in honor of "Inspired," a song for #hopefulhippies everywhere, with a vision of unity that overcomes division as well as a passionate call-to-action for young people to engage in their communities and help create social change.

Miley Cyrus is a singer-songwriter, actress, artist and philanthropist. With five #1 albums including her 2013 Grammy-nominated album 'Bangerz,' which went Platinum in the U.S. and Australia, five sold out world tours and almost 30 million tracks sold, Cyrus is one of the most influential artists in pop culture. Most recently she showcased her artistic vision on her independent album 'Miley Cyrus and Her Dead Petz.' She is one of the most searched artists in Internet history with over 160 million digital platform subscribers and over 3 billion video views.

In addition to her success in music and television, Cyrus founded the nonprofit organization The Happy Hippie Foundation to rally young people to fight injustice. Since launching, the foundation has provided direct support to thousands of homeless and LGBTQ youth across the country. In 2015, amfAR honored Cyrus' fight against HIV/AIDS with its Award of Inspiration and the Los Angeles LGBT Center honored her work on behalf of LGBT youth with its Vanguard Award. Most recently, Cyrus has been honored with Variety's 2016 Power of Women award for all her philanthropic efforts.

Tracklist:

01. Younger Now
02. Malibu
03. Rainbowland
04. Week Without You
05. Miss You So Much
06. I Would Die For You
07. Thinkin'
08. Bad Mood
09. Love Someone
10. She's Not Him
11. Inspired

foobar2000 1.3.7 / Dynamic Range Meter 1.1.1
log date: 2017-10-17 07:38:32

––––––––––––––––––––––––––––––––––––––––
Analyzed: Miley Cyrus / Younger Now
––––––––––––––––––––––––––––––––––––––––

DR Peak RMS Duration Track
––––––––––––––––––––––––––––––––––––––––
DR5 0.00 dB -7.48 dB 4:09 01-Younger Now
DR6 0.00 dB -8.76 dB 3:52 02-Malibu
DR6 0.00 dB -8.54 dB 4:25 03-Rainbowland (feat. Dolly Parton)
DR5 0.00 dB -6.18 dB 3:44 04-Week Without You
DR6 0.00 dB -8.92 dB 4:54 05-Miss You So Much
DR6 0.00 dB -9.12 dB 2:54 06-I Would Die For You
DR5 0.00 dB -6.29 dB 4:05 07-Thinkin'
DR6 0.00 dB -7.63 dB 2:59 08-Bad Mood
DR5 0.00 dB -7.24 dB 3:19 09-Love Someone
DR6 0.00 dB -8.23 dB 3:34 10-She's Not Him
DR7 0.00 dB -9.50 dB 3:21 11-Inspired
––––––––––––––––––––––––––––––––––––––––

Number of tracks: 11
Official DR value: DR6

Samplerate: 44100 Hz
Channels: 2
Bits per sample: 24
Bitrate: 1554 kbps
Codec: FLAC
================================================================================


All thanks go to the original releaser