Sergio Azzolini - Mozart & Michael Haydn: Bassoon Concerto & Serenade (2017) [Official Digital Download]

Posted By: SERTiL
Sergio Azzolini - Mozart & Michael Haydn: Bassoon Concerto & Serenade (2017) [Official Digital Download]

Sergio Azzolini - Mozart & Michael Haydn: Bassoon Concerto & Serenade (2017)
FLAC (tracks) 24-bit/48 kHz | Time - 60:36 minutes | 590 MB
Studio Master, Official Digital Download | Artwork: Digital booklet

A stunning recording by bassoonist and early music specialist Sergio Azzolini of Mozart’s only bassoon concerto and a new recording of Michael Haydn’s Serenade with the Streicherakade-mie Bozen. Mozart wrote only one bassoon concerto (K.191), but it is considered one of his best concertos across all instruments. A world premiere recording of Serenade by Michael Haydn (1737-1806), reconstructed by Azzo-lini himself.

TRACKLIST

Michael Haydn (1737 - 1806)

1 Divertimento, MH 412: I. Marcia. Andantino grazioso 03:00

Wolfgang Amadeus Mozart (1756 - 1791)

2 Bassoon Concerto in B-Flat Major, K. 191: I. Allegro 06:45
3 Bassoon Concerto in B-Flat Major, K. 191: II. Andante ma adagio 06:36
4 Bassoon Concerto in B-Flat Major, K. 191: III. Rondo. Tempo di Menuetto 04:15

Michael Haydn

5 Symphony No. 14 in B-Flat Major, MH 133: I. Allegro molto 06:48
6 Symphony No. 14 in B-Flat Major, MH 133: II. Adagio mà non troppo, "Concertino per il Fagotto" 07:16
7 Symphony No. 14 in B-Flat Major, MH 133: III. Menuet. Trio 02:54
8 Trumpet Concerto No. 2 in D Major, MH 104: I. Adagio 06:07
9 Trumpet Concerto No. 2 in D Major, MH 104: II. Allegro 02:56
10 Menuetto / Trio, MH deest 03:01
11 Andante Scherzo, MH deest 05:03
12 Finale. Allegro assai, MH deest 02:59

Wolfgang Amadeus Mozart

13 Cassation in B-Flat Major, K. 99/63a: I. Marcia. Allegro molto 02:55

PERSONNEL
Sergio Azzolini, bassoon
Streicherakademie Bozen

foobar2000 1.3.7 / Dynamic Range Meter 1.1.1
log date: 2017-08-29 18:21:38

––––––––––––––––––––––––––––––––––––––––
Analyzed: Sergio Azzolini / Mozart & Michael Haydn: Bassoon Concerto & Serenade
––––––––––––––––––––––––––––––––––––––––

DR Peak RMS Duration Track
––––––––––––––––––––––––––––––––––––––––
DR13 -11.32 dB -29.31 dB 3:00 01-Divertimento, MH 412: I. Marcia. Andantino grazioso
DR14 -2.87 dB -22.69 dB 6:46 02-Bassoon Concerto in B-Flat Major, K. 191: I. Allegro
DR12 -9.29 dB -27.90 dB 6:37 03-Bassoon Concerto in B-Flat Major, K. 191: II. Andante ma adagio
DR13 -3.68 dB -23.00 dB 4:15 04-Bassoon Concerto in B-Flat Major, K. 191: III. Rondo. Tempo di Menuetto
DR15 -2.77 dB -22.80 dB 6:48 05-Symphony No. 14 in B-Flat Major, MH 133: I. Allegro molto
DR12 -9.52 dB -25.77 dB 7:16 06-Symphony No. 14 in B-Flat Major, MH 133: II. Adagio mà non troppo, "Concertino per il Fagotto"
DR13 -7.22 dB -25.80 dB 2:54 07-Symphony No. 14 in B-Flat Major, MH 133: III. Menuet. Trio
DR13 -7.34 dB -25.05 dB 6:08 08-Trumpet Concerto No. 2 in D Major, MH 104: I. Adagio
DR14 -4.48 dB -22.07 dB 2:56 09-Trumpet Concerto No. 2 in D Major, MH 104: II. Allegro
DR13 -7.00 dB -25.24 dB 3:02 10-Menuetto / Trio, MH deest
DR15 -10.79 dB -31.55 dB 5:04 11-Andante Scherzo, MH deest
DR13 -2.97 dB -21.81 dB 3:00 12-Finale. Allegro assai, MH deest
DR14 -4.43 dB -24.93 dB 2:55 13-Cassation in B-Flat Major, K. 99/63a: I. Marcia. Allegro molto
––––––––––––––––––––––––––––––––––––––––

Number of tracks: 13
Official DR value: DR13

Samplerate: 48000 Hz
Channels: 2
Bits per sample: 24
Bitrate: 1322 kbps
Codec: FLAC
================================================================================


Thanks to the Original customer.