Frank de Bruine, Orchestra of the 18th Century - Mozart: Oboe Concerto (2016) [Official Digital Download 24/96]

Posted By: SERTiL
Frank de Bruine, Orchestra of the 18th Century - Mozart: Oboe Concerto (2016) [Official Digital Download 24/96]

Frank de Bruine, Orchestra of the 18th Century, Kenneth Montgomery - W.A. Mozart: Oboe Concerto & Other Works with Oboe (2016)
FLAC (tracks) 24-bit/96 kHz | Time - 69:01 minutes | 1.23 GB
Studio Master, Official Digital Download | Artwork: Digital Booklet

Following the death of Frans Brüggen in August 2014, the decision was taken by the Orchestra of the Eighteenth Century to continue touring the world, and inviting various guest conductors who have worked with the ensemble over the years, such as Daniel Reuss and Andrea Marcon, and indeed Kenneth Montgomery, who directs the orchestral pieces on this brand new recording for Glossa.

The first recorded result of the post-Brüggen era is this Mozart CD with a programme centred on the oboe, which has been devised by longstanding orchestra member, Frank de Bruine. Mozart has been central to the Orchestra’s music making and the composer made many friends with wind players – including oboists – and wrote abundantly for them. De Bruine, himself is the soloist in the C major Oboe Concerto (the original version of the Flute Concerto, KV 314) and is present in two chamber pieces, the F major Oboe Quartet, KV 370 and the D major Divertimento, KV 251. The CD closes with the concert aria, “Vorrei spiegarvi, oh Dio!”, KV 418 sung by Dutch soprano Lenneke Ruiten.

This new chapter in the recorded history of the Orchestra of the Eighteenth Century is crowned with an essay by scholar Clemens Romijn.

Tracklist:

Wolfgang Amadeus Mozart (1756-1791)

Oboe Concerto in C Major, K. 314
01 | I. Allegro aperto 00:07:13
02 | II. Andante ma non troppo 00:07:23
03 | III. Rondo: Allegretto 00:06:18

Quartet for Oboe, Violin, Viola & Cello in F Major, K. 370
04 | I. Allegro 00:06:51
05 | II. Adagio 00:03:36
06 | III. Rondeau 00:04:27

Divertimento No. 11 in D Major, K. 251 "Nannerl Septet"
07 | VI. Marcia alla francese 00:02:10
08 | I. Allegro molto 00:06:32
09 | II. Menuetto 00:04:31
10 | III. Andantino 00:04:00
11 | IV. Menuetto: Theme and variations: Theme 00:04:14
12 | V. Rondo: Allegro assai 00:05:14

13 | Vorrei spiegarvi, oh Dio, K. 418 00:06:41

Personnel:
Frank de Bruine, oboe
Rémy Baudet, violin
Franc Polman, violin
Yoshiko Morita, viola
Albert Brüggen, cello
Maggie Urquhart, contrabass
Teunis van der Zwart, horn
Stefan Blonk, horn
Lenneke Ruiten, soprano
Orchestra of the 18th Century
Kenneth Montgomery, conductor

foobar2000 1.3.7 / Dynamic Range Meter 1.1.1
log date: 2018-03-06 19:02:52

––––––––––––––––––––––––––––––––––––––––
Analyzed: Frank de Bruine, Rémy Baudet, Yoshiko Morita, Albert Brüggen / Mozart: Oboe Concerto & Other Works with Oboe (1-3)
Frank de Bruine / Mozart: Oboe Concerto & Other Works with Oboe (4-6)
Lenneke Ruiten, Frank de Bruine / Mozart: Oboe Concerto & Other Works with Oboe (7)
Teunis van der Zwart, Frank de Bruine, Rémy Baudet, Franc Polman, Yoshiko Morita, Maggie Urquhart, Stefan Blonk / Mozart: Oboe Concerto & Other Works with Oboe (8-13)
––––––––––––––––––––––––––––––––––––––––

DR Peak RMS Duration Track
––––––––––––––––––––––––––––––––––––––––
DR13 -6.35 dB -22.87 dB 6:51 04-Quartet for Oboe, Violin, Viola & Cello in F Major, K. 370: I. Allegro
DR12 -7.87 dB -25.07 dB 3:36 05-Quartet for Oboe, Violin, Viola & Cello in F Major, K. 370: II. Adagio
DR13 -5.14 dB -23.76 dB 4:27 06-Quartet for Oboe, Violin, Viola & Cello in F Major, K. 370: III. Rondeau
DR12 -2.16 dB -20.16 dB 7:13 01-Oboe Concerto in C Major, K. 314: I. Allegro aperto
DR12 -2.54 dB -20.76 dB 7:23 02-Oboe Concerto in C Major, K. 314: II. Andante ma non troppo
DR13 -2.90 dB -21.17 dB 6:18 03-Oboe Concerto in C Major, K. 314: III. Rondo: Allegretto
DR12 -0.49 dB -16.85 dB 6:41 13-Vorrei spiegarvi, oh Dio, K. 418: Vorrei spiegarvi, oh Dio, K. 418
DR11 -1.34 dB -16.73 dB 2:10 07-Divertimento No. 11 in D Major, K. 251 "Nannerl Septet": VI. Marcia alla francese
DR11 -1.38 dB -16.70 dB 6:32 08-Divertimento No. 11 in D Major, K. 251 "Nannerl Septet": I. Allegro molto
DR12 -1.94 dB -18.01 dB 4:31 09-Divertimento No. 11 in D Major, K. 251 "Nannerl Septet": II. Menuetto
DR11 -2.11 dB -18.71 dB 4:00 10-Divertimento No. 11 in D Major, K. 251 "Nannerl Septet": III. Andantino
DR12 -1.97 dB -18.94 dB 4:14 11-Divertimento No. 11 in D Major, K. 251 "Nannerl Septet": IV. Menuetto: Theme and variations: Theme
DR13 -1.87 dB -18.36 dB 5:14 12-Divertimento No. 11 in D Major, K. 251 "Nannerl Septet": V. Rondo: Allegro assai
––––––––––––––––––––––––––––––––––––––––

Number of tracks: 13
Official DR value: DR12

Samplerate: 96000 Hz
Channels: 2
Bits per sample: 24
Bitrate: 2659 kbps
Codec: FLAC
================================================================================


Thanks to the Original customer.