Augustin Hadelich & Joyce Yang - Franck, Kurtág, Previn & Schumann: Music for Violin & Piano (2016) [24/96]

Posted By: SERTiL
Augustin Hadelich & Joyce Yang - Franck, Kurtág, Previn & Schumann: Music for Violin & Piano (2016) [24/96]

Augustin Hadelich & Joyce Yang - Franck, Kurtág, Previn & Schumann: Music for Violin & Piano (2016)
FLAC (tracks) 24-bit/96 kHz | Time - 67:18 minutes | 1.14 GB
Studio Master, Official Digital Download | Artwork: Digital Booklet

Violinist Augustin Hadelich and pianist Joyce Yang, two of the most esteemed artists of their generation, pair for a program that mirrors their many acclaimed joint recital appearances, with works by Franck, Kurtág, Previn and Schumann.

Grammy Award-winning violinist Augustin Hadelich is one of the most impressive musicians of his generation. Pianist Joyce Yang, youngest ever medalist of the Van Cliburn Competition, is a consistently electrifying presence on stage. Together these young artists produce a plethora of pyrotechnics and an abundance of musical imagination. This unique recital program pairs two 19th-century repertory staples - Sonatas by Franck and Schumann - with 20th century fare by Kurtág and Previn, a combination Augustin and Joyce have performed to widespread acclaim in their frequent joint performances.

Tracklist:
01. Tango Song and Dance: I. Tango
02. Tango Song and Dance: II. Song
03. Tango Song and Dance: III. Dance
04. Violin Sonata No.1 in A Minor, Op. 105: I. Mit leidenschaftlichem Ausdruck
05. Violin Sonata No.1 in A Minor, Op. 105: II. Allegretto
06. Violin Sonata No.1 in A Minor, Op. 105: III. Lebhaft
07. Tre Pezzi, Op.14e: I. Öd und traurig
08. Tre Pezzi, Op.14e: II. Vivo
09. Tre Pezzi, Op.14e: III. Aus der Ferne
10. Violin Sonata in A Major, FWV 8: I. Allegretto ben moderato
11. Violin Sonata in A Major, FWV 8: II. Allegro
12. Violin Sonata in A Major, FWV 8: III. Recitativo-Fantasia. Ben moderato
13. Violin Sonata in A Major, FWV 8: IV. Allegretto poco mosso

Composers:
Franck, César Auguste (1822-90)
Kurtág, György (b.1926)
Previn, André (b.1929)
Schumann, Robert (1810-56)

Personnel:
Augustin Hadelich (violin)
Joyce Yang (piano)

foobar2000 1.3.7 / Dynamic Range Meter 1.1.1
log date: 2018-04-11 17:56:41

––––––––––––––––––––––––––––––––––––––––
Analyzed: Augustin Hadelich, Joyce Yang / Franck, Kurtág, Previn & Schumann: Music for Violin & Piano
––––––––––––––––––––––––––––––––––––––––

DR Peak RMS Duration Track
––––––––––––––––––––––––––––––––––––––––
DR14 -1.59 dB -22.68 dB 5:20 01-Tango Song and Dance: I. Tango
DR15 -2.53 dB -25.29 dB 4:42 02-Tango Song and Dance: II. Song
DR14 -0.39 dB -19.66 dB 5:40 03-Tango Song and Dance: III. Dance
DR14 -1.49 dB -21.23 dB 7:35 04-Violin Sonata No.1 in A Minor, Op. 105: I. Mit leidenschaftlichem Ausdruck
DR15 -3.52 dB -26.16 dB 3:48 05-Violin Sonata No.1 in A Minor, Op. 105: II. Allegretto
DR14 -2.29 dB -22.05 dB 5:31 06-Violin Sonata No.1 in A Minor, Op. 105: III. Lebhaft
DR16 -5.22 dB -29.75 dB 3:13 07-Tre Pezzi, Op.14e: I. Öd und traurig
DR13 -0.39 dB -21.12 dB 1:16 08-Tre Pezzi, Op.14e: II. Vivo
DR10 -12.14 dB -39.48 dB 2:30 09-Tre Pezzi, Op.14e: III. Aus der Ferne
DR14 -0.41 dB -21.55 dB 6:02 10-Violin Sonata in A Major, FWV 8: I. Allegretto ben moderato
DR13 -0.66 dB -19.21 dB 8:17 11-Violin Sonata in A Major, FWV 8: II. Allegro
DR13 -1.02 dB -21.59 dB 7:31 12-Violin Sonata in A Major, FWV 8: III. Recitativo-Fantasia. Ben moderato
DR12 -0.39 dB -17.08 dB 6:02 13-Violin Sonata in A Major, FWV 8: IV. Allegretto poco mosso
––––––––––––––––––––––––––––––––––––––––

Number of tracks: 13
Official DR value: DR14

Samplerate: 96000 Hz
Channels: 2
Bits per sample: 24
Bitrate: 2631 kbps
Codec: FLAC
================================================================================


Thanks to the Original customer.