Poliça & s t a r g a z e - Music for the Long Emergency (2018) [Official Digital Download]

Posted By: SERTiL
Poliça & s t a r g a z e - Music for the Long Emergency (2018) [Official Digital Download]

Poliça & s t a r g a z e - Music for the Long Emergency (2018)
FLAC (tracks) 24-bit/44.1 kHz | Time - 38:02 minutes | 418 MB
Studio Master, Official Digital Download | Artwork: Front Cover

"The first official s t a r g a z e release was a pioneering re-interpretation of the music of the alternative experimentalists Deerhoof, ‘Deerhoof Chamber Variations’, which led to the fulsome and controversial takeover of the BBC Proms for the David Bowie night, which saw s t a r g a z e collaborate with artists as diverse as John Cale, Elf Kid, Marc Almond and Anna Calvi amongst others, to celebrate the astounding, at times contradictory, music of this soulful, inspirational polymath.

POLIÇA have themselves blazed a trail across the modern musical landscape - throughout their three albums of dark, personally political pop they have distorted the conventions of production and form to create deeply affecting songs that claw into your consciousness.

s t a r g a z e’s approach reflects the true collaborative nature of the project and album. He listened closely to POLIÇA’s music, admiring what he describes as the band’s “extreme sense of harmony” and began to see how their two worlds might entwine.

This album, showing a very different access point to the album, demonstrates further the powerful production skills of POLIÇA’s Ryan Olson, who documented and augmented these sounds at Justin Vernon’s studio in Wisconsin."



Tracklist:
1. Fake Like (03:54)
2. Marrow (02:48)
3. Speaking Of Ghost (04:14)
4. Agree (03:22)
5. Cursed (03:54)
6. How Is This Happening (10:07)
7. Music For The Long Emergency (09:47)

foobar2000 1.3.7 / Dynamic Range Meter 1.1.1
log date: 2018-02-16 15:25:55

––––––––––––––––––––––––––––––––––––––––
Analyzed: Poliça & s t a r g a z e / Music for the Long Emergency
––––––––––––––––––––––––––––––––––––––––

DR Peak RMS Duration Track
––––––––––––––––––––––––––––––––––––––––
DR6 -1.04 dB -10.00 dB 3:54 01-Fake Like
DR4 -1.05 dB -7.53 dB 2:48 02-Marrow
DR6 -1.08 dB -10.36 dB 4:14 03-Speaking Of Ghost
DR5 -1.08 dB -8.11 dB 3:22 04-Agree
DR5 -0.98 dB -8.09 dB 3:54 05-Cursed
DR6 -1.10 dB -10.06 dB 10:07 06-How Is This Happening
DR5 -1.07 dB -8.93 dB 9:47 07-Music For The Long Emergency
––––––––––––––––––––––––––––––––––––––––

Number of tracks: 7
Official DR value: DR5

Samplerate: 44100 Hz
Channels: 2
Bits per sample: 24
Bitrate: 1537 kbps
Codec: FLAC
================================================================================


Thanks to the Original customer.