In Echo & Gawain Glenton - Music in a Cold Climate: Sounds of Hansa Europe (2018) [Official Digital Download]

Posted By: SERTiL
In Echo & Gawain Glenton - Music in a Cold Climate: Sounds of Hansa Europe (2018) [Official Digital Download]

In Echo & Gawain Glenton - Music in a Cold Climate: Sounds of Hansa Europe (2018)
FLAC (tracks) 24-bit/48 kHz | Time - 67:22 minutes | 717 MB
Studio Master, Official Digital Download | Artwork: Digital Booklet

A new signing for Delphian, In Echo is made up of some of Europe’s finest young early-music specialists. Each a soloist in their own right, under director Gawain Glenton they have put together a fascinating snapshot of the musical landscape during the heyday of the Hanseatic League. The seafaring nations of northern Europe have always been connected: London to Tallinn via Lübeck, Hamburg, Bremen and the ports of Holland, Denmark and Sweden. The sixteenth- and seventeenth-century composer/musicians on this recording each looked beyond their own shores and toward a sense of shared European culture and understanding. Andrew Keeling’s new work Northern Soul was commissioned specially to complement this programme.

Formed in 2016, In Echo has already given recitals at Dartington International Summer School and at York Early Music Christmas Festival. In 2018 they will perform in Regensburg, as well as making several appearances in the UK. Their director, specialist cornetto player Gawain Glenton, performs with many leading international groups and directors, including Il Giardino Armonico, Concerto Italiano, I Fagiolini and The Taverner Consort.



Tracklist:
01. Symphony à 4 No. 1, Op. 12 02:53
02. Der heilig Berg 01:04
03. Peggy Bell 00:42
04. Ein Schottisch Tanz 01:27
05. Sonata à 4 in D Minor 09:16
06. Das Lied ist hier 01:06
07. Susanna paduanna 03:34
08. Prelude 02:04
09. Divisions on John Come Kiss Me Now 04:38
10. Sonata à 2 08:13
11. Paduana Lachrymae (After J. Dowland) 04:59
12. Image of Melancholly 04:31
13. Northern Soul: Walk 1 03:13
14. Northern Soul: Walk 2 02:45
15. Northern Soul: Walk 3 02:40
16. Northern Soul: Walk 4 03:37
17. Der 8, Psalm 03:37
18. Sonata 31 à 4 02:37
19. Lachrimae Pavan 04:26

Composers:
Albert, Heinrich (1604-51)
Baltzar, Thomas (c.1630-63)
Becker, Dietrich (1623-79)
Bertali, Antonio (1605-69)
Brade, William (1560-1630)
Holborne, Antony (?1545-1602)
Keeling, Andrew (b.1955)
Schildt, Melchior (1593-1667)
Schop, Johan (c.1590-1667)
Sommer, Johann (c.1570-1627)
Staden, Johann (1581-1634)

Personnel:
In Echo
Gawain Glenton, direction

foobar2000 1.3.7 / Dynamic Range Meter 1.1.1
log date: 2018-01-20 16:56:10

––––––––––––––––––––––––––––––––––––––––
Analyzed: Bojan Čičić/Gawain Glenton/Richard Boothby / Music in a Cold Climate (1)
Bojan Čičić/Silas Wollston / Music in a Cold Climate (2)
Bojan Čičić / Music in a Cold Climate (3)
Gawain Glenton/Emily White/Silas Wollston / Music in a Cold Climate (4)
Gawain Glenton/Silas Wollston / Music in a Cold Climate (5)
In Echo/Gawain Glenton / Music in a Cold Climate (6-18)
Silas Wollston / Music in a Cold Climate (19)
––––––––––––––––––––––––––––––––––––––––

DR Peak RMS Duration Track
––––––––––––––––––––––––––––––––––––––––
DR11 -6.17 dB -22.37 dB 1:06 06-Das Leid ist hier: Das Lied ist hier
DR14 -7.89 dB -25.48 dB 4:39 09-Divisions on 'John Come Kiss Me Now': Divisions on John Come Kiss Me Now
DR13 -8.83 dB -26.77 dB 2:04 08-Prelude
DR13 -1.89 dB -17.99 dB 8:14 10-Sonata a 2: Sonata à 2
DR12 -3.84 dB -20.36 dB 4:26 19-Lachrimae Pavan
DR12 -1.08 dB -18.42 dB 2:54 01-Symphony a 4 No. 1, Op. 12: Symphony à 4 No. 1, Op. 12
DR11 -5.55 dB -19.59 dB 1:04 02-Der heilig Berg
DR11 -4.74 dB -19.11 dB 0:43 03-Peggy Bell
DR10 -4.88 dB -20.65 dB 1:27 04-Ein Schottisch Tanz
DR13 -1.77 dB -19.29 dB 9:16 05-Sonata a 4 in D Minor: Sonata à 4 in D Minor
DR12 -3.06 dB -18.14 dB 3:35 07-Susanna paduanna
DR12 -4.50 dB -19.70 dB 4:32 12-Image of Melancholly
DR14 -0.40 dB -19.09 dB 3:13 13-Northern Soul: Walk 1
DR12 -2.97 dB -20.86 dB 2:45 14-Northern Soul: Walk 2
DR13 -0.40 dB -17.81 dB 2:41 15-Northern Soul: Walk 3
DR13 -2.93 dB -22.15 dB 3:38 16-Northern Soul: Walk 4
DR12 -5.28 dB -22.07 dB 3:37 17-Der 8. Psalm: Der 8, Psalm
DR11 -4.34 dB -18.42 dB 2:37 18-Sonata 31 a 4: Sonata 31 à 4
DR13 -14.01 dB -30.89 dB 4:59 11-Paduana Lachrymae (After J. Dowland)
––––––––––––––––––––––––––––––––––––––––

Number of tracks: 19
Official DR value: DR12

Samplerate: 48000 Hz
Channels: 2
Bits per sample: 24
Bitrate: 1525 kbps
Codec: FLAC
================================================================================


Thanks to the Original customer.