Nicki Parrott – The Last Time I Saw Paris (2013) [SACD ISO+HiRes FLAC]

Posted By: tiburon
Nicki Parrott – The Last Time I Saw Paris (2013) [SACD ISO+HiRes FLAC]

Nicki Parrott – The Last Time I Saw Paris (2013) [SACD ISO+HiRes FLAC]
Pio BDP-80FD Rip | SACD ISO | DST64 2.0 >1-bit/2.8224 MHz | Front+Back | 2.54GB + 5% Recovery
FLAC tracks 2.0 24bit/88.2 kHz | Front+Back | 1.33GB + 5% Recovery

Celebrated as an instrumentalist and a vocalist, Australian artist Nicki Parrott has earned acclaim as one of the most engaging talents to emerge on the jazz scene in the 21st century. Born in Newcastle, New South Wales, Australia in 1970, Parrott had a precocious talent for music, first learning to play the piano when she was four years old.
Track List
01. Under Paris Skies
02. The Windmills Of Your Mind
03. Chanson De Maxence
04. Nuages – All For You
05. C’est Si bon
06. I Will Wait For You
07. Hymne L/Amour – If You Love Me
08. L’Ame Des Poetes
09. The Last Time I Saw Paris
10. The River Seine
11. La Mer – Beyond The Sea
12. La Vie En Rose
13. If You Go Away – Ne Me Quitte Pas
14. What Are You Doing The Best Of Your Life?

musicians
Nicki Parrott - vocals, bass
Jacob Fisher - guitar
Gil Goldstein - accordion
John Di Martino - piano
Tim Horner - drums

Produced by Tetsuo Hara


––––––––––––––––––––––––––––––––––––––––
Analyzed: NICKI PARROTT / THE LAST TIME I SAW PARIS
––––––––––––––––––––––––––––––––––––––––

DR Peak RMS Duration Track
––––––––––––––––––––––––––––––––––––––––
DR6 -5.01 dB -11.81 dB 4:04 01-Under Paris Skies
DR7 -5.13 dB -13.44 dB 4:11 02-The Windmills Of Your Mind
DR7 -5.14 dB -12.59 dB 5:18 03-Chanson De Maxence
DR6 -4.34 dB -12.38 dB 4:54 04-Nuages - All For You
DR7 -4.54 dB -12.69 dB 3:44 05-C'est Si Bon
DR6 -5.10 dB -12.18 dB 4:41 06-I Will Wait For You
DR7 -5.41 dB -14.63 dB 3:54 07-Hymne L'Amour - If You Love Me
DR6 -5.09 dB -12.60 dB 3:25 08-L'Ame Des Poetes
DR7 -4.84 dB -13.46 dB 4:08 09-The Last Time I Saw Paris
DR6 -4.97 dB -12.78 dB 3:58 10-The River Seine
DR7 -4.36 dB -12.62 dB 4:57 11-La Mer - Beyond The Sea
DR7 -4.80 dB -13.30 dB 4:13 12-La Vie En Rose
DR7 -5.01 dB -13.88 dB 5:05 13-If You Go Away - Ne Me Quitte Pas
DR7 -5.21 dB -13.47 dB 6:33 14-What Are You Doing The Rest Of Your Life?
––––––––––––––––––––––––––––––––––––––––

Number of tracks: 14
Official DR value: DR7

Samplerate: 2822400 Hz / PCM Samplerate: 88200 Hz
Channels: 2
Bits per sample: 1
Bitrate: 5645 kbps
Codec: DSD64
================================================================================


––––––––––––––––––––––––––––––––––––––––
Analyzed: NICKI PARROTT / THE LAST TIME I SAW PARIS
––––––––––––––––––––––––––––––––––––––––

DR Peak RMS Duration Track
––––––––––––––––––––––––––––––––––––––––
DR6 -0.71 dB -7.51 dB 4:04 01-Under Paris Skies
DR7 -0.83 dB -9.14 dB 4:11 02-The Windmills Of Your Mind
DR7 -0.84 dB -8.29 dB 5:18 03-Chanson De Maxence
DR6 -0.04 dB -8.08 dB 4:54 04-Nuages - All For You
DR7 -0.24 dB -8.39 dB 3:44 05-C'est Si Bon
DR6 -0.80 dB -7.88 dB 4:41 06-I Will Wait For You
DR7 -1.11 dB -10.33 dB 3:54 07-Hymne L'Amour - If You Love Me
DR6 -0.79 dB -8.30 dB 3:25 08-L'Ame Des Poetes
DR7 -0.54 dB -9.16 dB 4:08 09-The Last Time I Saw Paris
DR6 -0.67 dB -8.48 dB 3:58 10-The River Seine
DR7 -0.06 dB -8.32 dB 4:57 11-La Mer - Beyond The Sea
DR7 -0.50 dB -9.00 dB 4:13 12-La Vie En Rose
DR7 -0.71 dB -9.58 dB 5:05 13-If You Go Away - Ne Me Quitte Pas
DR7 -0.91 dB -9.17 dB 6:33 14-What Are You Doing The Rest Of Your Life?
––––––––––––––––––––––––––––––––––––––––

Number of tracks: 14
Official DR value: DR7

Samplerate: 88200 Hz
Channels: 2
Bits per sample: 24
Bitrate: 3003 kbps
Codec: FLAC
================================================================================


Gain for FLAC tracks = 4.3dB

Thanks to the original ripper